返回列表 发帖

[高清MKV电影] 人群中的脸 Faces.in.the.Crowd.2011.BluRay.720p.x264.AC3-WOFEI 中英字幕

http://bbs.hd62.com/thread-604773-1-1.html





◎译  名 人群中的脸
◎片  名 Faces in the Crowd
◎年  代 2011
◎国  家 美国/法国/加拿大
◎类  别 恐怖/惊悚
◎语  言 英语
◎字  幕 中英字幕/中文字幕/英中字幕/英文字幕
◎IMDB评分 (awaiting 5 votes)
◎下载链接 http://bbs.hd62.com/forum-138-1.html
◎文件格式 x264 + AC3
◎视频尺寸 1280 x 720
◎文件大小 1CD 2.18G
◎片  长 1:42:32 (h:m:s)
◎导  演 朱利安·麦格奈 Julien Magnat
◎主  演 米拉·乔沃维奇 Milla Jovovich ....Anna Marchant
      朱利安·麦克马洪 Julian McMahon ....Kerrest
      莎拉·韦恩·卡丽丝 Sarah Wayne Callies ....Francine
      迈克尔·山克斯 Michael Shanks ....Bryce
      桑德琳·霍尔特 Sandrine Holt ....Nina #6
      玛丽安娜·菲斯福尔 Marianne Faithfull ....Dr. Langenkamp
      Valentina Vargas ....Nina
      亚当·哈林顿 Adam Harrington ....Bryce #8 (as Adam John Harrington)
      Coady Mayo ....Nicholas

◎简  介 

  女主角特工安娜(米拉.乔沃维奇 饰)在一场与连环杀手缠斗中头部受到重创,等到从医院苏醒过来后,她发现辩认面孔的功能已经丧失,包括镜中的自己,所谓的“镜子神经细胞”———被诱骗脱离抑制状态。当人观察自己或他人在镜中的动作时,这种细胞就活跃起来。幸存下来的安娜开始过上了变脸生活。她学会了在极短时间内变脸,如此一来便轻松地摆脱了杀手们的视线。

E:\rmvb资源\[高清MKV收藏www.hdbird.com]\老鸟家园[bbs.hd62.com].人群中的脸.720p.中英字幕\人群中的脸 Faces.in.the.Crowd.2011.BluRay.720p.x264.AC3-WOFEI.mkv
   General
      Unique ID : 178853886144704243950932064440107104607 (0x868E01686C29ED0598C95715C353795F)
      Complete name : E:\rmvb资源\[高清MKV收藏www.hdbird.com]\老鸟家园[bbs.hd62.com].人群中的脸.720p.中英字幕\人群中的脸 Faces.in.the.Crowd.2011.BluRay.720p.x264.AC3-WOFEI.mkv
      Format : Matroska
      Format version : Version 2
      File size : 2.18 GiB
      Duration : 1h 42mn
      Overall bit rate : 3 050 Kbps
      Encoded date : UTC 2012-10-14 11:44:23
      Writing application : mkvmerge v3.4.0 ('Rapunzel') 编译于 May 15 2010 09:38:20
      Writing library : libebml v0.8.0 + libmatroska v0.9.0
   Video #1
      ID : 1
      Format : AVC
      Format/Info : Advanced Video Codec
      Format profile : High@L4.1
      Format settings, CABAC : Yes
      Format settings, ReFrames : 4 frames
      Codec ID : V_MPEG4/ISO/AVC
      Duration : 1h 42mn
      Bit rate : 2 602 Kbps
      Width : 1 280 pixels
      Height : 720 pixels
      Display aspect ratio : 16:9
      Frame rate : 23.976 fps
      Color space : YUV
      Chroma subsampling : 4:2:0
      Bit depth : 8 bits
      Scan type : Progressive
      Bits/(Pixel*Frame) : 0.118
      Stream size : 1.82 GiB (83%)
      Writing library : x264 core 116 r2074 2641b9e
      Encoding settings : cabac=1 / ref=3 / deblock=1:0:0 / analyse=0x3:0x113 / me=hex / subme=7 / psy=1 / psy_rd=1.00:0.00 / mixed_ref=1 / me_range=16 / chroma_me=1 / trellis=1 / 8x8dct=1 / cqm=0 / deadzone=21,11 / fast_pskip=1 / chroma_qp_offset=-2 / threads=6 / sliced_threads=0 / nr=0 / decimate=1 / interlaced=0 / bluray_compat=0 / constrained_intra=0 / bframes=3 / b_pyramid=2 / b_adapt=1 / b_bias=0 / direct=1 / weightb=1 / open_gop=0 / weightp=2 / keyint=250 / keyint_min=23 / scenecut=40 / intra_refresh=0 / rc_lookahead=40 / rc=2pass / mbtree=1 / bitrate=2602 / ratetol=1.0 / qcomp=0.60 / qpmin=0 / qpmax=69 / qpstep=4 / cplxblur=20.0 / qblur=0.5 / vbv_maxrate=50000 / vbv_bufsize=50000 / nal_hrd=none / ip_ratio=1.40 / aq=1:1.00
      Language : English
   Audio #2
      ID : 2
      Format : AC-3
      Format/Info : Audio Coding 3
      Mode extension : CM (complete main)
      Codec ID : A_AC3
      Duration : 1h 42mn
      Bit rate mode : Constant
      Bit rate : 448 Kbps
      Channel(s) : 6 channels
      Channel positions : Front: L C R, Side: L R, LFE
      Sampling rate : 48.0 KHz
      Bit depth : 16 bits
      Compression mode : Lossy
      Stream size : 329 MiB (15%)
   Text #3
      ID : 3
      Format : SSA
      Codec ID : S_TEXT/SSA
      Codec ID/Info : Sub Station Alpha
      Compression mode : Lossless
      Title : 中英
   Text #4
      ID : 4
      Format : SSA
      Codec ID : S_TEXT/SSA
      Codec ID/Info : Sub Station Alpha
      Compression mode : Lossless
      Title : 英中
   Text #5
      ID : 5
      Format : UTF-8
      Codec ID : S_TEXT/UTF8
      Codec ID/Info : UTF-8 Plain Text
      Title : 中文
   Text #6
      ID : 6
      Format : UTF-8
      Codec ID : S_TEXT/UTF8
      Codec ID/Info : UTF-8 Plain Text
      Title : 英文




分享到: 新浪微博新浪微博 QQ空间QQ空间 腾讯微博腾讯微博 腾讯朋友腾讯朋友

三年了,终于沙发了!哈哈

TOP

不错的片子    多谢分享

TOP

返回列表