返回列表 发帖

[高清MKV电影] 弃城 Zombie.108.2012.BluRay.720p.x264.AC3-WOFEI 中文字幕

http://bbs.hd62.com/thread-609084-1-1.html







◎译  名 Z-108弃城/弃城
◎片  名 Zombie108/Z-108
◎年  代 2012
◎国  家 中国台湾
◎类  别 奇幻/惊悚/动作
◎语  言 普通话
◎字  幕 中文
◎IMDB评分 N/A
◎IMDB链接 N/A
◎文件格式 X264 + AC3
◎视频尺寸 1280 x 720
◎文件大小 1CD 2.05GiB
◎片  长 87 Mins
◎导  演 钱人豪   Joe Chien
◎主  演 姚采颖 Caiying Yao
                 戎祥 Cheung Yung
                 太保 Po Tai
                 周韦彤 Weitong Zhou
                 高捷 Jack Kao
                 杜宇航 Yu-Hang To
                 林佳陵 Lena Lin
                 庹宗康 Zongkang Tuo
                 刘畊宏 Liu Keng Hung
                 程秀瑛 Cheng Hsiu-ying
                 陈致远 Zhi-yuan Chen
                 朱木炎 Mu-yan Zhu

◎简  介 

      因为一场病毒意外,ZF下令连夜撤离所有西门町的居民,然而昨晚狂欢的地下帮派根本不知道这件讯息;同时间、特种部队正闯入,准备执行格杀命令,企图瓦解盘据西门町区已久的黑社会组织,然而、角头老大的亲信小弟们却突然变成活尸四处咬噬,顿时、西门町血肉横飞,逼迫着互不信任的黑道、警察、特种部队、还有平民们,不得不携手逃出生天,然而表面虽然彼此合作,暗自裡却仍勾心斗角,甚至上演街头格斗、自相残杀......

花絮

·《弃城》利用Facebook串连网友捐款的方式募集到大部分资金,担任影片制作人及主演的影星戎祥和钱人豪在开机时募得新台币872万,其余部分由二人联合投资及申请“电影未来会申请自制片辅导金”来完成。
·《弃城》的导演钱人豪是台湾新锐导演中的异类,针对新片受众他曾表示:“这部电影不适合娘炮和假文青看。”他还说:“我受不了台湾一些文绉绉的电影,我们看电影是打发时间,这跟我们到K房唱歌寻开心是一个道理。”
·该片已入选了2011年布鲁塞尔奇幻影展(BIFFF)的“午夜极限”单元。

E:\rmvb资源\[高清MKV收藏www.hdbird.com]\老鸟家园[bbs.hd62.com].弃城.720p.中英字幕\弃城 Zombie.108.2012.BluRay.720p.x264.AC3-WOFEI.mkv
   General
      Unique ID : 196597731116526231861912351299707672353 (0x93E7588220AF9910A08138C2E5251721)
      Complete name : E:\rmvb资源\[高清MKV收藏www.hdbird.com]\老鸟家园[bbs.hd62.com].弃城.720p.中英字幕\弃城 Zombie.108.2012.BluRay.720p.x264.AC3-WOFEI.mkv
      Format : Matroska
      Format version : Version 2
      File size : 2.05 GiB
      Duration : 1h 26mn
      Overall bit rate : 3 407 Kbps
      Encoded date : UTC 2012-12-21 05:37:13
      Writing application : mkvmerge v3.4.0 ('Rapunzel') 编译于 May 15 2010 09:38:20
      Writing library : libebml v0.8.0 + libmatroska v0.9.0
   Video #1
      ID : 1
      Format : AVC
      Format/Info : Advanced Video Codec
      Format profile : High@L4.1
      Format settings, CABAC : Yes
      Format settings, ReFrames : 5 frames
      Codec ID : V_MPEG4/ISO/AVC
      Duration : 1h 26mn
      Bit rate : 2 957 Kbps
      Width : 1 280 pixels
      Height : 720 pixels
      Display aspect ratio : 16:9
      Frame rate : 23.976 fps
      Color space : YUV
      Chroma subsampling : 4:2:0
      Bit depth : 8 bits
      Scan type : Progressive
      Bits/(Pixel*Frame) : 0.134
      Stream size : 1.74 GiB (85%)
      Writing library : x264 core 116 r2074 2641b9e
      Encoding settings : cabac=1 / ref=5 / deblock=1:-1:-1 / analyse=0x3:0x113 / me=umh / subme=6 / psy=1 / psy_rd=1.00:0.00 / mixed_ref=1 / me_range=16 / chroma_me=1 / trellis=2 / 8x8dct=1 / cqm=0 / deadzone=21,11 / fast_pskip=1 / chroma_qp_offset=-2 / threads=12 / sliced_threads=0 / nr=0 / decimate=1 / interlaced=0 / bluray_compat=0 / constrained_intra=0 / bframes=3 / b_pyramid=0 / b_adapt=1 / b_bias=0 / direct=3 / weightb=1 / open_gop=0 / weightp=2 / keyint=250 / keyint_min=23 / scenecut=40 / intra_refresh=0 / rc_lookahead=40 / rc=2pass / mbtree=1 / bitrate=2957 / ratetol=1.0 / qcomp=0.60 / qpmin=10 / qpmax=51 / qpstep=4 / cplxblur=20.0 / qblur=0.5 / vbv_maxrate=50000 / vbv_bufsize=50000 / nal_hrd=none / ip_ratio=1.40 / aq=1:1.00
   Audio #2
      ID : 2
      Format : AC-3
      Format/Info : Audio Coding 3
      Mode extension : CM (complete main)
      Codec ID : A_AC3
      Duration : 1h 26mn
      Bit rate mode : Constant
      Bit rate : 448 Kbps
      Channel(s) : 6 channels
      Channel positions : Front: L C R, Side: L R, LFE
      Sampling rate : 48.0 KHz
      Bit depth : 16 bits
      Compression mode : Lossy
      Stream size : 276 MiB (13%)
   Text #3
      ID : 3
      Format : UTF-8
      Codec ID : S_TEXT/UTF8
      Codec ID/Info : UTF-8 Plain Text




分享到: 新浪微博新浪微博 QQ空间QQ空间 腾讯微博腾讯微博 腾讯朋友腾讯朋友

看海报就是恐怖的呢

TOP

喜欢,好片子

TOP

支持发片

TOP

好帖要顶,楼主的头像还是不错滴

TOP

支持发片,谢谢分享

TOP

支持发片,谢谢分享

TOP

看后感悟了点,收下了

TOP

返回列表