返回列表 发帖

[1080P] 机器之血 Bleeding.Steel.2017.1080p.HC.WEBRip.x264.AAC2.0-SHITBOX




◎译  名 机器之血
◎片  名 Bleeding Steel
◎年  代 2017
◎国  家 中国
◎类  别 动作/冒险
◎语  言 普通话
◎字  幕简体中文/英文
◎IMDb评分 5.5/10 from 766 users
◎IMDB链接 http://imdb.com/title/tt5813366/
◎文件格式 x264 + AAC
◎视频尺寸 1920x816
◎文件大小 2.16 GiB
◎片  长 1 h 49 min
◎导  演 张立嘉 Leo Zhang
◎主  演 成龙 Jackie Chan
       罗志祥 Show Luo
       欧阳娜娜 Nana Ouyang
       夏侯云姗 Qiyu Xiahou
       卡兰·马尔韦 Callan Mulvey
       泰丝·哈乌布里奇 Tess Haubrich
       吉娜·卡拉诺 Gina Carano



◎简  介

  2007年,Dr.James在半岛军火商的支持下研究生化人。研究过程中,生化人安德烈发生基因突变大开杀戒,将半岛军火商杀害,并控制其组织,接管生化人的研究。Dr.James侥幸逃生,只好寻求警方的保护。特工林东(成龙 饰)不得以离开生命垂危的小女儿西西,接受证人保护任务...

  十三年后,一本科幻小说《机器之血》的出版引出了黑衣生化人组织,神秘骇客李森(罗志祥 饰)(被杀害的半岛军火商的儿子),以及隐姓埋名的林东,三股力量都开始接近一个“普通”女孩Nancy(欧阳娜娜饰)的生活,想要得到她身上的秘密。而黑衣人幕后受伤隐藏多年的安德烈也再次出手,在多次缠斗之后终于抓走Nancy。林东和李森,不得不以身犯险一同前去解救,关键时刻却发现李森竟然是被杀害的半岛军火商的儿子,生化人的实验记录也落入了李森之手.....

Video
ID                                       : 1
Format                                   : AVC
Format/Info                              : Advanced Video Codec
Format profile                           : High@L4
Format settings                          : CABAC / 4 Ref Frames
Format settings, CABAC                   : Yes
Format settings, ReFrames                : 4 frames
Codec ID                                 : avc1
Codec ID/Info                            : Advanced Video Coding
Duration                                 : 1 h 49 min
Bit rate                                 : 2 596 kb/s
Width                                    : 1 920 pixels
Height                                   : 816 pixels
Display aspect ratio                     : 2.35:1
Frame rate mode                          : Constant
Frame rate                               : 25.000 FPS
Color space                              : YUV
Chroma subsampling                       : 4:2:0
Bit depth                                : 8 bits
Scan type                                : Progressive
Bits/(Pixel*Frame)                       : 0.066
Stream size                              : 1.98 GiB (92%)
Title                                    : Bleeding.Steel.2017.1080p.HC.WEBRip.x264.AAC2.0-SHITBOX

Audio
ID                                       : 2
Format                                   : AAC
Format/Info                              : Advanced Audio Codec
Format profile                           : LC
Codec ID                                 : mp4a-40-2
Duration                                 : 1 h 49 min
Bit rate mode                            : Constant
Bit rate                                 : 224 kb/s
Channel(s)                               : 2 channels
Channel positions                        : Front: L R
Sampling rate                            : 48.0 kHz
Frame rate                               : 46.875 FPS (1024 SPF)
Compression mode                         : Lossy
Stream size                              : 175 MiB (8%)
Title                                    : Bleeding.Steel.2017.1080p.HC.WEBRip.x264.AAC2.0-SHITBOX
Default                                  : Yes
Alternate group                          : 1










Bleeding.Steel.2017.1080p.HC.WEBRip.x264.AAC2.0-SHITBOX.torrent (43.69 KB)

分享到: 新浪微博新浪微博 QQ空间QQ空间 腾讯微博腾讯微博 腾讯朋友腾讯朋友

多谢超版分享

TOP

谢谢谢谢谢谢

TOP

返回列表