返回列表 发帖

[720P] 考夫曼的游戏 Kaufmans.Game.2017.720p.BluRay.x264.DTS-FGT




◎译  名 考夫曼的游戏
◎片  名 Kaufman's Game
◎年  代 2017
◎国  家 英国
◎类  别 科幻/犯罪/悬疑/惊悚
◎语  言 英语
◎IMDb评分 3.7/10 from 57 users
◎IMDB链接 http://www.imdb.com/title/tt2238758
◎文件格式 x264 + DTS
◎视频尺寸 1280x534
◎文件大小 4.45 GiB
◎片  长 1 h 32 min
◎导  演 Helier Bissell-Thomas
◎主  演 Jye Frasca
       Tor Andreas Fagerland
       Toby Osmond

◎简  介

  Kaufman's Game follows Stanley| an unemployed young man with a passion for boxing| who is keen to improve his strength and stamina. When a stranger approaches himoutside the gym with the offer of a specially produced steroid| Stanley is drawn into the ever more violent operations of a powerful organisation| unwittinglyentering into a series of tests designed to prove his mettle. This is a film about power| determination and being your own worst enemy. It celebrates the archetypesof classic Film Noir| and the dark| conspiratorial storytelling technique of Franz Kafka| but with a contemporary minimalist aesthetic.

Video
ID                                       : 1
Format                                   : AVC
Format/Info                              : Advanced Video Codec
Format profile                           : High@L4.1
Format settings                          : CABAC / 4 Ref Frames
Format settings, CABAC                   : Yes
Format settings, ReFrames                : 4 frames
Codec ID                                 : V_MPEG4/ISO/AVC
Duration                                 : 1 h 32 min
Bit rate                                 : 5 500 kb/s
Width                                    : 1 280 pixels
Height                                   : 534 pixels
Display aspect ratio                     : 2.40:1
Original display aspect ratio            : 2.40:1
Frame rate mode                          : Constant
Frame rate                               : 23.976 (24000/1001) FPS
Color space                              : YUV
Chroma subsampling                       : 4:2:0
Bit depth                                : 8 bits
Scan type                                : Progressive
Bits/(Pixel*Frame)                       : 0.336
Stream size                              : 3.47 GiB (78%)
Title                                    : Kaufmans.Game.2017.720p.BluRay.x264.DTS-FGT
Writing library                          : x264 core 148 r2795M aaa9aa8
Encoding settings                        : cabac=1 / ref=4 / deblock=1:-2:-2 / analyse=0x3:0x113 / me=umh / subme=9 / psy=1 / psy_rd=1.00:0.15 / mixed_ref=1 / me_range=16 / chroma_me=1 / trellis=2 / 8x8dct=1 / cqm=0 / deadzone=21,11 / fast_pskip=1 / chroma_qp_offset=-3 / threads=24 / lookahead_threads=3 / sliced_threads=0 / nr=0 / decimate=1 / interlaced=0 / bluray_compat=0 / constrained_intra=0 / bframes=3 / b_pyramid=2 / b_adapt=2 / b_bias=0 / direct=3 / weightb=1 / open_gop=0 / weightp=2 / keyint=250 / keyint_min=25 / scenecut=40 / intra_refresh=0 / rc_lookahead=50 / rc=abr / mbtree=1 / bitrate=5500 / ratetol=1.0 / qcomp=0.60 / qpmin=0 / qpmax=69 / qpstep=4 / vbv_maxrate=31250 / vbv_bufsize=31250 / nal_hrd=none / filler=0 / ip_ratio=1.40 / aq=1:1.00
Language                                 : English
Default                                  : Yes
Forced                                   : No

Audio
ID                                       : 2
Format                                   : DTS
Format/Info                              : Digital Theater Systems
Codec ID                                 : A_DTS
Duration                                 : 1 h 32 min
Bit rate mode                            : Constant
Bit rate                                 : 1 509 kb/s
Channel(s)                               : 6 channels
Channel positions                        : Front: L C R, Side: L R, LFE
Sampling rate                            : 48.0 kHz
Frame rate                               : 93.750 FPS (512 SPF)
Bit depth                                : 24 bits
Compression mode                         : Lossy
Stream size                              : 1 003 MiB (22%)
Title                                    : Kaufmans.Game.2017.720p.BluRay.x264.DTS-FGT
Language                                 : English
Default                                  : No
Forced                                   : No

Text
ID                                       : 3
Format                                   : UTF-8
Codec ID                                 : S_TEXT/UTF8
Codec ID/Info                            : UTF-8 Plain Text
Duration                                 : 1 h 27 min
Bit rate                                 : 24 b/s
Count of elements                        : 607
Stream size                              : 15.6 KiB (0%)
Language                                 : English
Default                                  : Yes
Forced                                   : No

Menu
00:00:00.000                             : en:Chapter 01
00:09:01.916                             : en:Chapter 02
00:17:40.434                             : en:Chapter 03
00:26:54.195                             : en:Chapter 04
00:32:50.718                             : en:Chapter 05
00:42:07.066                             : en:Chapter 06
00:53:31.374                             : en:Chapter 07
01:00:25.997                             : en:Chapter 08
01:12:42.316                             : en:Chapter 09












Kaufmans.Game.2017.720p.BluRay.x264.DTS-FGT.torrent (89.53 KB)

分享到: 新浪微博新浪微博 QQ空间QQ空间 腾讯微博腾讯微博 腾讯朋友腾讯朋友

多谢超版分享

TOP

多谢超版分享

TOP

感谢楼主分享

TOP

返回列表