返回列表 发帖

[1080P] 见习/见习修女/爱的见习生 Novitiate.2017.1080p.BluRay.x264.DTS-MT



◎译  名 见习/见习修女/爱的见习生
◎片  名 Novitiate
◎年  代 2017
◎国  家 美国
◎类  别 剧情
◎语  言 英语
◎字  幕 英文
◎IMDb评分 6.6/10 from 571 users
◎IMDB链接 http://www.imdb.com/title/tt4513316
◎文件格式 x264 + DTS
◎视频尺寸 1920x804
◎文件大小 11.08 GiB
◎片  长 2 h 3 min
◎导  演 玛格丽特·贝茨 Margaret Betts
◎主  演 丽亚娜·莱伯拉托 Liana Liberato
      玛格丽特·库里 Margaret Qualley
      迪安娜·阿格隆 Dianna Agron
      伊琳·珀威尔 Eline Powell
      梅丽莎·里奥 Melissa Leo
      摩根·塞勒 Morgan Saylor
      克里斯·泽尔卡 Chris Zylka
      丹尼斯·欧哈拉 Denis O'Hare
      朱丽安妮·尼科尔森 Julianne Nicholson
      麦蒂·哈森 Maddie Hasson
      阿什丽·贝尔 Ashley Bell
      Chelsea Lopez
      丽贝卡·达扬 Rebecca Dayan8
      马科·圣约翰 Marco St. John

◎简  介

  美国导演玛格丽特·贝茨首部剧情长片《爱的见习生》,找来曾与名导斯派克·琼斯合拍广告而声名大噪的星二代玛格丽特·库里,饰演一名出生在无神论家庭的少女,为了成为修女而前往修道院见习,展开自我信仰的辩证,却也在压抑训诫中发觉内心骚动的欲望。玛格丽特·库里充满灵性的亮眼表现,不逊于同台飙戏的奥斯卡得主梅丽莎·里奥。影片大胆触碰宗教和同志议题,呈现超越性别的信仰与爱的真理,更赢得圣丹斯电影节评审团特别奖的赞扬。

获奖记录


圣丹斯电影节(2017;第33届)
获奖
·评审团特别奖-剧情片 Margaret Betts  
提名
·评审团大奖-剧情片 Margaret Betts
Video
ID                                       : 1
Format                                   : AVC
Format/Info                              : Advanced Video Codec
Format profile                           : High@L4.1
Format settings                          : CABAC / 5 Ref Frames
Format settings, CABAC                   : Yes
Format settings, ReFrames                : 5 frames
Codec ID                                 : V_MPEG4/ISO/AVC
Duration                                 : 2 h 3 min
Bit rate                                 : 11.3 Mb/s
Width                                    : 1 920 pixels
Height                                   : 804 pixels
Display aspect ratio                     : 2.40:1
Frame rate mode                          : Constant
Frame rate                               : 23.976 (24000/1001) FPS
Color space                              : YUV
Chroma subsampling                       : 4:2:0
Bit depth                                : 8 bits
Scan type                                : Progressive
Bits/(Pixel*Frame)                       : 0.307
Stream size                              : 9.78 GiB (88%)
Title                                    : Novitiate 2017.1080p.BluRay.x264.DTS-MT
Writing library                          : x264 core 152 r2851kMod ba24899
Encoding settings                        : cabac=1 / ref=5 / deblock=1:-3:-3 / analyse=0x3:0x133 / me=umh / subme=10 / psy=1 / fade_compensate=0.00 / psy_rd=1.00:0.00 / mixed_ref=1 / me_range=32 / chroma_me=1 / trellis=2 / 8x8dct=1 / cqm=0 / deadzone=21,11 / fast_pskip=0 / chroma_qp_offset=-2 / threads=24 / lookahead_threads=4 / sliced_threads=0 / nr=0 / decimate=1 / interlaced=0 / bluray_compat=0 / constrained_intra=0 / bframes=9 / b_pyramid=2 / b_adapt=2 / b_bias=0 / direct=1 / weightb=1 / open_gop=0 / weightp=2 / keyint=240 / keyint_min=23 / scenecut=40 / intra_refresh=0 / rc_lookahead=60 / rc=crf / mbtree=0 / crf=16.7000 / qcomp=0.60 / qpmin=0 / qpmax=69 / qpstep=4 / vbv_maxrate=50000 / vbv_bufsize=62500 / crf_max=0.0 / nal_hrd=none / filler=0 / ip_ratio=1.35 / pb_ratio=1.25 / aq=3:0.80
Language                                 : English
Default                                  : Yes
Forced                                   : No

Audio
ID                                       : 2
Format                                   : DTS
Format/Info                              : Digital Theater Systems
Codec ID                                 : A_DTS
Duration                                 : 2 h 3 min
Bit rate mode                            : Constant
Bit rate                                 : 1 509 kb/s
Channel(s)                               : 6 channels
Channel positions                        : Front: L C R, Side: L R, LFE
Sampling rate                            : 48.0 kHz
Frame rate                               : 93.750 FPS (512 SPF)
Bit depth                                : 24 bits
Compression mode                         : Lossy
Stream size                              : 1.30 GiB (12%)
Title                                    : Novitiate 2017.1080p.BluRay.x264.DTS-MT
Language                                 : English
Default                                  : Yes
Forced                                   : No

Text
ID                                       : 3
Format                                   : UTF-8
Codec ID                                 : S_TEXT/UTF8
Codec ID/Info                            : UTF-8 Plain Text
Duration                                 : 1 h 55 min
Bit rate                                 : 56 b/s
Count of elements                        : 1383
Stream size                              : 47.7 KiB (0%)
Language                                 : English
Default                                  : Yes
Forced                                   : No










Novitiate.2017.1080p.BluRay.x264.DTS-MT.torrent (55.95 KB)

分享到: 新浪微博新浪微博 QQ空间QQ空间 腾讯微博腾讯微博 腾讯朋友腾讯朋友

多谢超版分享

TOP

感谢版主分享
花落滿懷  暗香盈袖  淡淡歡喜淡淡愁

TOP

感谢楼主分享

TOP

返回列表