返回列表 发帖

[1080P] 养家之人/养家的人 The.Breadwinner.2017.1080p.WEB-DL.DD5.1.H264-FGT




◎译  名 养家之人/养家的人
◎片  名 The Breadwinner
◎年  代 2017
◎国  家 爱尔兰/加拿大/卢森堡
◎类  别 动画/家庭
◎语  言 英语
◎字  幕 N/A
◎IMDb评分 7.3/10 from 623 users
◎IMDB链接 http://www.imdb.com/title/tt3901826/
◎文件格式 H264 + AC3
◎视频尺寸 1916x796
◎文件大小 3.20 GiB
◎片  长 1h 33mn
◎导  演 诺拉·托梅 Nora Twomey
◎主  演 Soma Chhaya`
       Noorin Gulamgaus
      Ali Badshah
      

◎简  介

  一个名叫“帕瓦娜”(Parvana)的小女孩,刚刚11岁,和家人住在阿富汗首都喀布尔一桩被炸毁的大楼里。 2001年在塔利班控制下的喀布尔市场,美丽的帕瓦娜时常去市场给慈爱博学的父亲努鲁拉(Nurullah)她帮忙, 闲暇时父亲跟她讲起那些柬埔寨古远的历史和迷人的传说,帕瓦娜被传说中的人物深深打动,她立誓要像 传说中的人物那样勇敢又充满仁慈的光芒。当帕瓦娜被自己这种隐秘的快乐的所鼓舞时,他亲爱的父亲突 然被塔利班带走了。

  帕瓦娜在所有人选择放弃时,她鼓起勇气决定去寻找父亲。由于那些日积月累的故事,帕瓦娜变成了一个 说书人。然而,每一天对于帕瓦娜来说都是挑战——她既需要女扮男装来应对塔利班的的对女子行为严苛 的约束,又要把足够的食物和水来带回家,以养活她的母亲、姐妹和弟弟。

  在遇到同样是女扮男装的肖希娅(Shauzia)后,似乎事情变得容易了些,她们结伴度日,但些许的安宁,很快 又被2001年秋天的那场突如其来的著名战争打破……

获奖记录

奥斯卡金像奖(2018;第90届)
提名
·奥斯卡奖-最佳动画长片诺拉·托梅 Nora Twomey   Anthony Leo  

美国金球奖(2018;第75届)
提名
·电影类-最佳动画片
Video
ID                                       : 1
Format                                   : AVC
Format/Info                              : Advanced Video Codec
Format profile                           : High@L4
Format settings                          : CABAC / 5 Ref Frames
Format settings, CABAC                   : Yes
Format settings, ReFrames                : 5 frames
Codec ID                                 : V_MPEG4/ISO/AVC
Duration                                 : 1 h 33 min
Bit rate                                 : 4 522 kb/s
Width                                    : 1 916 pixels
Height                                   : 796 pixels
Display aspect ratio                     : 2.40:1
Frame rate mode                          : Constant
Frame rate                               : 23.976 FPS
Color space                              : YUV
Chroma subsampling                       : 4:2:0
Bit depth                                : 8 bits
Scan type                                : Progressive
Bits/(Pixel*Frame)                       : 0.124
Stream size                              : 2.95 GiB (92%)
Title                                    : The.Breadwinner.2017.1080p.WEB-DL.DD5.1.H264-FGT
Language                                 : English
Default                                  : Yes
Forced                                   : No
Color range                              : Limited
Color primaries                          : BT.709
Transfer characteristics                 : BT.709
Matrix coefficients                      : BT.709

Audio
ID                                       : 2
Format                                   : AC-3
Format/Info                              : Audio Coding 3
Codec ID                                 : A_AC3
Duration                                 : 1 h 33 min
Bit rate mode                            : Constant
Bit rate                                 : 384 kb/s
Channel(s)                               : 6 channels
Channel positions                        : Front: L C R, Side: L R, LFE
Sampling rate                            : 48.0 kHz
Frame rate                               : 31.250 FPS (1536 SPF)
Bit depth                                : 16 bits
Compression mode                         : Lossy
Stream size                              : 257 MiB (8%)
Title                                    : The.Breadwinner.2017.1080p.WEB-DL.DD5.1.H264-FGT
Language                                 : English
Service kind                             : Complete Main
Default                                  : Yes
Forced                                   : No

Menu
00:00:00.000                             : en:1
00:05:33.875                             : en:2
00:11:00.076                             : en:3
00:15:44.026                             : en:4
00:20:49.538                             : en:5
00:25:10.966                             : en:6
00:30:51.680                             : en:7
00:35:17.737                             : en:8
00:40:07.193                             : en:9
00:45:14.959                             : en:10
00:50:08.752                             : en:11
00:55:12.096                             : en:12
01:00:17.650                             : en:13
01:06:07.291                             : en:14
01:10:09.324                             : en:15
01:15:29.643                             : en:16
01:20:17.764                             : en:17
01:25:55.142                             : en:18











The.Breadwinner.2017.1080p.WEB-DL.DD5.1.H264-FGT.torrent (64.58 KB)

分享到: 新浪微博新浪微博 QQ空间QQ空间 腾讯微博腾讯微博 腾讯朋友腾讯朋友

多谢超版分享

TOP

感谢版主分享
花落滿懷  暗香盈袖  淡淡歡喜淡淡愁

TOP

感谢楼主分享

TOP

返回列表