返回列表 发帖

[1080P] 圣诞发明家/发明圣诞节的人 The.Man.Who.Invented.Christmas.2017.1080p.WEB-DL.DD5.1.H264-FGT




◎译  名 圣诞发明家/发明圣诞节的人
◎片  名 The Man Who Invented Christmas
◎年  代 2017
◎国  家 爱尔兰/加拿大
◎类  别 传记/喜剧/剧情
◎语  言 英语
◎字  幕 英文
◎IMDb评分 7.1/10 from 1942 users
◎IMDB链接 http://www.imdb.com/title/tt6225520/
◎文件格式 H264 + DD5.1
◎视频尺寸 1916x800
◎文件大小 3.61 GiB
◎片  长 1 h 44 min
◎导  演 贝瑞特·奈鲁利 Bharat Nalluri
◎主  演 丹·史蒂文斯 Dan Stevens
      克里斯托弗·普卢默 Christopher Plummer
      乔纳森·普雷斯 Jonathan Pryce
      西蒙·卡洛 Simon Callow
      米瑞安·玛格莱斯 Miriam Margolyes
      伊恩·麦克尼奇 Ian McNeice
      比尔·帕特森 Bill Paterson
      唐纳德·桑普特 Donald Sumpter

◎简  介

  影片以狄更斯(丹·史蒂文斯)1843年创作小说《圣诞颂歌》(A Christmas Carol)的六周经历为主要内容,克里斯托弗·普拉默饰演小说男主角“Scrooge”的原型,而乔纳森·普莱斯将饰演狄更斯的父亲。
Video
ID                                       : 1
Format                                   : AVC
Format/Info                              : Advanced Video Codec
Format profile                           : High@L4
Format settings                          : CABAC / 5 Ref Frames
Format settings, CABAC                   : Yes
Format settings, ReFrames                : 5 frames
Codec ID                                 : V_MPEG4/ISO/AVC
Duration                                 : 1 h 44 min
Bit rate                                 : 4 564 kb/s
Width                                    : 1 916 pixels
Height                                   : 800 pixels
Display aspect ratio                     : 2.40:1
Frame rate mode                          : Constant
Frame rate                               : 23.976 (23976/1000) FPS
Color space                              : YUV
Chroma subsampling                       : 4:2:0
Bit depth                                : 8 bits
Scan type                                : Progressive
Bits/(Pixel*Frame)                       : 0.124
Stream size                              : 3.33 GiB (92%)
Title                                    : The.Man.Who.Invented.Christmas.2017.1080p.WEB-DL.DD5.1.H264-FGT
Language                                 : English
Default                                  : Yes
Forced                                   : No
Color range                              : Limited
Color primaries                          : BT.709
Transfer characteristics                 : BT.709
Matrix coefficients                      : BT.709

Audio
ID                                       : 2
Format                                   : AC-3
Format/Info                              : Audio Coding 3
Codec ID                                 : A_AC3
Duration                                 : 1 h 44 min
Bit rate mode                            : Constant
Bit rate                                 : 384 kb/s
Channel(s)                               : 6 channels
Channel positions                        : Front: L C R, Side: L R, LFE
Sampling rate                            : 48.0 kHz
Frame rate                               : 31.250 FPS (1536 SPF)
Bit depth                                : 16 bits
Compression mode                         : Lossy
Stream size                              : 287 MiB (8%)
Title                                    : The.Man.Who.Invented.Christmas.2017.1080p.WEB-DL.DD5.1.H264-FGT
Language                                 : English
Service kind                             : Complete Main
Default                                  : Yes
Forced                                   : No

Text
ID                                       : 3
Format                                   : UTF-8
Codec ID                                 : S_TEXT/UTF8
Codec ID/Info                            : UTF-8 Plain Text
Duration                                 : 1 h 36 min
Bit rate                                 : 64 b/s
Count of elements                        : 1408
Stream size                              : 45.4 KiB (0%)
Language                                 : English
Default                                  : Yes
Forced                                   : No

Menu
00:00:00.000                             : en:1
00:05:07.015                             : en:2
00:12:42.345                             : en:3
00:17:13.740                             : en:4
00:22:03.654                             : en:5
00:25:11.841                             : en:6
00:29:03.697                             : en:7
00:33:23.540                             : en:8
00:37:54.893                             : en:9
00:41:51.253                             : en:10
00:47:03.106                             : en:11
00:51:24.200                             : en:12
00:57:16.509                             : en:13
01:05:35.758                             : en:14
01:09:45.924                             : en:15
01:15:33.145                             : en:16
01:19:47.356                             : en:17
01:27:45.000                             : en:18
01:32:10.849                             : en:19
01:37:58.863                             : en:20











分享到: 新浪微博新浪微博 QQ空间QQ空间 腾讯微博腾讯微博 腾讯朋友腾讯朋友

3Q  see sth.
^^&

TOP

多谢超版分享

TOP

谢谢分享

TOP

感谢版主分享
花落滿懷  暗香盈袖  淡淡歡喜淡淡愁

TOP

多谢楼主分享

TOP

返回列表