返回列表 发帖

[1080P] 我们疯狂的年代 Nos.Annees.Folles.2017.FRENCH.1080p.WEB.H264-PREUMS




◎译  名 我们疯狂的年代
◎片  名 Nos années folles/ Golden Years
◎年  代 2017
◎国  家 法国
◎类  别 剧情
◎语  言 法语
◎字  幕 N/A
◎IMDb评分 5.8/10 from 118 users
◎IMDB链接 http://www.imdb.com/title/tt6012792/
◎文件格式 x264 +AC3
◎视频尺寸 1916x1032
◎文件大小 3.98 GiB
◎片  长 1 h 42 min
◎导  演 安德烈·泰希内 André Téchiné
◎主  演 皮埃尔·德隆尚 Pierre Deladonchamps
       赛琳娜·萨莱特 Céline Sallette
       格雷戈瓦·勒普兰斯-林盖 Grégoire Leprince-Ringuet
       克洛德·让萨克 Claude Gensac
       米歇尔·富 Michel Fau
      


◎简  介


  影片以一战为背景讲述一位逃兵波诡云谲的生活。为了逃避军事法庭审判,他不惜乔装打扮成女性,让妻子陪他一同演戏。而当赦免令最终到来时,“她”已经成为巴黎的社交名媛,重新找回自己的道路铺满荆棘。

获奖记录

戛纳电影节(2017;第70届)
提名
·同志棕榈奖安德列·泰西内 André Téchiné

General
Unique ID                      : 243669580612735449740423388888989763913 (0xB7510DDEFDE5DDAC8258F135BCC50949)
Complete name                  : Nos.Annees.Folles.2017.FRENCH.1080p.WEB.H264-PREUMS\Nos.Annees.Folles.2017.FRENCH.1080p.WEB.H264-PREUMS.mkv
Format                         : Matroska
Format version                 : Version 4 / Version 2
File size                      : 3.98 GiB
Duration                       : 1 h 42 min
Overall bit rate               : 5 547 kb/s
Movie name                     : release by PREUMS
Encoded date                   : UTC 2018-02-22 08:19:52
Writing application            : mkvmerge v17.0.0 ('Be Ur Friend') 64-bit
Writing library                : libebml v1.3.5 + libmatroska v1.4.8
IsTruncated                    : Yes
FileExtension_Invalid          : mkv mk3d mka mks

Video
ID                             : 1
Format                         : AVC
Format/Info                    : Advanced Video Codec
Format profile                 : High@L4
Format settings                : CABAC / 4 Ref Frames
Format settings, CABAC         : Yes
Format settings, ReFrames      : 4 frames
Codec ID                       : V_MPEG4/ISO/AVC
Duration                       : 1 h 42 min
Bit rate                       : 5 053 kb/s
Width                          : 1 916 pixels
Height                         : 1 032 pixels
Display aspect ratio           : 1.85:1
Frame rate mode                : Constant
Frame rate                     : 23.976 (24000/1001) FPS
Color space                    : YUV
Chroma subsampling             : 4:2:0
Bit depth                      : 8 bits
Scan type                      : Progressive
Bits/(Pixel*Frame)             : 0.107
Stream size                    : 3.62 GiB (91%)
Language                       : French
Default                        : Yes
Forced                         : No
Color range                    : Limited
Color primaries                : BT.709
Transfer characteristics       : BT.709
Matrix coefficients            : BT.709

Audio
ID                             : 2
Format                         : AC-3
Format/Info                    : Audio Coding 3
Codec ID                       : A_AC3
Duration                       : 1 h 42 min
Bit rate mode                  : Constant
Bit rate                       : 384 kb/s
Channel(s)                     : 6 channels
Channel positions              : Front: L C R, Side: L R, LFE
Sampling rate                  : 48.0 kHz
Frame rate                     : 31.250 FPS (1536 SPF)
Bit depth                      : 16 bits
Compression mode               : Lossy
Stream size                    : 282 MiB (7%)
Title                          : VF 5.1
Language                       : French
Service kind                   : Complete Main
Default                        : Yes
Forced                         : No

Menu
00:00:00.000                   : en:Chapitre 1
00:09:36.659                   : en:Chapitre 2
00:17:51.570                   : en:Chapitre 3
00:26:35.218                   : en:Chapitre 4
00:35:25.081                   : en:Chapitre 5
00:48:32.576                   : en:Chapitre 6
00:57:36.119                   : en:Chapitre 7
01:06:52.842                   : en:Chapitre 8
01:16:17.740                   : en:Chapitre 9
01:25:08.437                   : en:Chapitre 10
01:39:22.707                   : en:Chapitre 11

Nos.Annees.Folles.2017.FRENCH.1080p.WEB.H264-PREUMS.torrent (162.16 KB)

分享到: 新浪微博新浪微博 QQ空间QQ空间 腾讯微博腾讯微博 腾讯朋友腾讯朋友

多谢超版分享

TOP

多谢楼主分享

TOP

感谢版主分享
花落滿懷  暗香盈袖  淡淡歡喜淡淡愁

TOP

谢谢楼主提供好片
luckygod

TOP

返回列表