返回列表 发帖

[1080P] 摩天轮/奇迹摩天轮/爱情摩天轮(台)/奇幻摩天轮(港) Wonder.Wheel.2017.1080p.AMZN.WEBRip.DDP5.1.x264-KiNGS




◎译  名 摩天轮/奇迹摩天轮/爱情摩天轮(台)/奇幻摩天轮(港)
◎片  名 Wonder Wheel
◎年  代 2017
◎国  家 美国
◎类  别 剧情
◎语  言 英语
◎字  幕 英文
◎IMDb评分 6.3/10 from 7,149 users
◎IMDB链接 http://www.imdb.com/title/tt5825380
◎文件格式 x264 + DDP
◎视频尺寸 1920x960
◎文件大小 7.04 GiB
◎片  长 1 h 40 min
◎导  演 伍迪·艾伦 Woody Allen
◎主  演 凯特·温丝莱特 Kate Winslet
      贾斯汀·汀布莱克 Justin Timberlake
      詹姆斯·贝鲁什 James Belushi
      朱诺·坦普尔 Juno Temple
      马克斯·凯塞拉 Max Casella
      杰克·戈尔 Jack Gore
      大卫·克鲁霍尔特兹 David Krumholtz
      罗伯特·C·柯克 Robert C. Kirk
      汤米·诺伊利 Tommy Nohilly
      托尼·西里科 Tony Sirico
      史蒂夫·石林帕 Steve Schirripa
      约翰·多马尼安 John Doumanian
      汤姆·盖里 Tom Guiry
      格雷戈瑞·丹恩 Gregory Dann\
      鲍比·斯雷顿 Bobby Slayton
      迈克尔·泽加斯基 Michael Zegarski
      吉内瓦·卡尔 Geneva Carr
      艾德·朱厄特 Ed Jewett
      黛比·玛扎 Debi Mazar
      达尼埃尔·费兰 Danielle Ferland
      麦迪·科尔曼 Maddie Corman
      雅各布·伯杰 Jacob Berger
      珍娜·斯特恩 Jenna Stern
      迈克尔·斯特里亚诺 Michael Striano
      约翰·麦尼尔利 John Mainieri

◎简  介


  故事发生在上世纪五十年代的康尼岛,凯特·温斯莱特在片中饰演一名旋转木马管理员的妻子Ginny,却爱上了一个帅气的海滩救生员Mickey(贾老板饰)。而神奇的是,她丈夫与前妻所生的女儿(朱诺·坦普尔饰)突然回来了,也看上了米奇,这就开始了一个尴尬而挣扎的故事。

Video
ID                                       : 1
Format                                   : AVC
Format/Info                              : Advanced Video Codec
Format profile                           : High@L4
Format settings                          : CABAC / 4 Ref Frames
Format settings, CABAC                   : Yes
Format settings, ReFrames                : 4 frames
Codec ID                                 : V_MPEG4/ISO/AVC
Duration                                 : 1 h 40 min
Bit rate mode                            : Variable
Bit rate                                 : 9 339 kb/s
Maximum bit rate                         : 15.0 Mb/s
Width                                    : 1 920 pixels
Height                                   : 960 pixels
Display aspect ratio                     : 2.000
Frame rate mode                          : Constant
Frame rate                               : 23.976 (24000/1001) FPS
Color space                              : YUV
Chroma subsampling                       : 4:2:0
Bit depth                                : 8 bits
Scan type                                : Progressive
Bits/(Pixel*Frame)                       : 0.211
Stream size                              : 6.59 GiB (94%)
Default                                  : Yes
Forced                                   : No
Color range                              : Limited
Color primaries                          : BT.709
Transfer characteristics                 : BT.709
Matrix coefficients                      : BT.709

Audio
ID                                       : 2
Format                                   : E-AC-3
Format/Info                              : Enhanced Audio Coding 3
Codec ID                                 : A_EAC3
Duration                                 : 1 h 40 min
Bit rate mode                            : Constant
Bit rate                                 : 640 kb/s
Channel(s)                               : 6 channels
Channel positions                        : Front: L C R, Side: L R, LFE
Sampling rate                            : 48.0 kHz
Frame rate                               : 187.500 FPS (256 SPF)
Compression mode                         : Lossy
Stream size                              : 462 MiB (6%)
Language                                 : English
Service kind                             : Complete Main
Default                                  : Yes
Forced                                   : No

Text
ID                                       : 3
Format                                   : UTF-8
Codec ID                                 : S_TEXT/UTF8
Codec ID/Info                            : UTF-8 Plain Text
Duration                                 : 1 h 40 min
Bit rate                                 : 98 b/s
Count of elements                        : 2316
Stream size                              : 72.1 KiB (0%)
Language                                 : English
Default                                  : No
Forced                                   : No

Menu
00:00:00.000                             : en:Amazon Original
00:00:21.000                             : en:Opening Credits
00:01:03.000                             : en:In walks Carolina
00:12:21.000                             : en:Ginny asks Humpty how long Carolina is staying
00:14:20.000                             : en:Richie\'s problem with matches
00:16:14.000                             : en:Ginny tells Richie about her early schooling days
00:17:52.000                             : en:How Mickey met Ginny
00:21:55.000                             : en:Ginny prepares herself to tell Mickey the truth
00:28:01.000                             : en:One thing leads to another
00:30:53.000                             : en:Two men ask Humpty about Carolina\'s whereabouts
00:33:54.000                             : en:The two men head West while Carolina continues life on the boardwalk
00:35:28.000                             : en:Life continues on the pier
00:40:06.000                             : en:Carolina asks Mickey about a book
00:42:01.000                             : en:Ginny learns of Carolina\'s new crush
00:44:22.000                             : en:Ginny warns Mickey of Carolina
00:46:11.000                             : en:Mickey gives Carolina a lift to work
00:51:53.000                             : en:Ginny\'s tombstone birthday
01:01:54.000                             : en:Ginny\'s tombstone birthday
01:02:59.000                             : en:Ginny asks Humpty for money
01:05:18.000                             : en:Ginny makes her jealousy apparent to Mickey
01:07:54.000                             : en:Mickey looks to his friend Jake for advice
01:09:38.000                             : en:Ginny gets Mickey a birthday gift
01:15:38.000                             : en:Ginny spirals out of control back at home
01:17:58.000                             : en:Ginny spots danger from afar
01:20:43.000                             : en:Carolina and Mickey have their pizza date
01:24:01.000                             : en:Humpty asks Mickey where Carolina is
01:25:35.000                             : en:Humpty lets out his frustration on Ginny
01:28:38.000                             : en:Mickey confronts Ginny
01:35:02.000                             : en:Mickey confronts Ginny
01:38:06.000                             : en:End Credits











Wonder.Wheel.2017.1080p.AMZN.WEBRip.DDP5.1.x264-KiNGS.torrent (72.36 KB)

分享到: 新浪微博新浪微博 QQ空间QQ空间 腾讯微博腾讯微博 腾讯朋友腾讯朋友

多谢超版分享

TOP

多谢楼主分享

TOP

感谢版主分享
花落滿懷  暗香盈袖  淡淡歡喜淡淡愁

TOP

返回列表