返回列表 发帖

[1080P] 方形/自由广场/方块/方块/魔方/抓狂美术馆(台)/方寸见人心(港) The.Square.2017.WEB-DL.Rip.1080p.H264.AC3-Unknown




◎译  名 方形/自由广场/方块/方块/魔方/抓狂美术馆(台)/方寸见人心(港)
◎片  名 The Square
◎年  代 2017
◎国  家 瑞典/德国/法国/丹麦
◎类  别 剧情/喜剧
◎语  言 瑞典语...
◎IMDb评分 7.6//10 from 14,780 users
◎IMDB链接 http://www.imdb.com/title/tt4995790/
◎文件格式 H264 + AC3
◎视频尺寸 1920x1036  
◎文件大小 6.34 GiB
◎片  长 2 h 31 min
◎导  演 鲁本·奥斯特伦德 Ruben Östlund `
◎主  演 克拉斯·邦 Claes Bang
       伊丽莎白·莫斯 Elisabeth Moss
       多米尼克·威斯特 Dominic West
       泰瑞·诺塔里 Terry Notary
       克里斯托弗·莱索 Christopher Læssø


◎简  介

  Christian的是一位离异的父亲,他非常享受和自己的两个孩子在一起的时光。他在一家现代艺术博物馆担任策展人,工作很受人好评。不仅如此,他还是驾驶环保电动汽车,捍卫人道理念的活动者。他正在策划一场名为“The Square”的装置展览,旨在激发参观者内心的利他主义,并唤醒他们对下一代人的责任感。但Christian并无法真正接受自己推崇的理念:当他的手机被盗后,他的反应让自己也感到汗颜……与此同时,博物馆的传媒代理行为The Square推出一项令他出乎意料的宣传活动:这令Christian措手不及,更在他的内心激起一场存在主义危机……

获奖记录

奥斯卡金像奖(2018;第90届)
提名
·奥斯卡奖-最佳外语片

美国金球奖(2018;第75届)
提名
·电影类-最佳外语片

戛纳电影节(2017;第70届)
获奖
·金棕榈奖鲁本·奥斯特伦德 Ruben Östlund
General
Unique ID : 177118151658877422759604962844681013615 (0x853FB7172DDA480890D651C765C1896F)
Complete name : The.Square.2017.WEB-DLRip.1080p.mkv
Format : Matroska
Format version : Version 4 / Version 2
File size : 6.34 GiB
Duration : 2 h 31 min
Overall bit rate : 6 005 kb/s
Encoded date : UTC 2018-02-21 07:53:55
Writing application : mkvmerge v7.1.0 ('Good Love') 64bit built on Jul 27 2014 13:06:55
Writing library : libebml v1.3.0 + libmatroska v1.4.1
Cover : Yes
Attachments : cover.jpg

Video
ID : 1
Format : AVC
Format/Info : Advanced Video Codec
Format profile : High@L4
Format settings : CABAC / 4 Ref Frames
Format settings, CABAC : Yes
Format settings, ReFrames : 4 frames
Codec ID : V_MPEG4/ISO/AVC
Duration : 2 h 31 min
Bit rate : 5 170 kb/s
Width : 1 920 pixels
Height : 1 036 pixels
Display aspect ratio : 1.85:1
Frame rate mode : Constant
Frame rate : 23.976 (24000/1001) FPS
Color space : YUV
Chroma subsampling : 4:2:0
Bit depth : 8 bits
Scan type : Progressive
Bits/(Pixel*Frame) : 0.108
Stream size : 5.46 GiB (86%)
Language : English
Default : Yes
Forced : No
Color range : Limited
Color primaries : BT.709
Transfer characteristics : BT.709
Matrix coefficients : BT.709

Audio #1
ID : 2
Format : AC-3
Format/Info : Audio Coding 3
Codec ID : A_AC3
Duration : 2 h 31 min
Bit rate mode : Constant
Bit rate : 448 kb/s
Channel(s) : 6 channels
Channel positions : Front: L C R, Side: L R, LFE
Sampling rate : 48.0 kHz
Frame rate : 31.250 FPS (1536 SPF)
Bit depth : 16 bits
Compression mode : Lossy
Delay relative to video : -200 ms
Stream size : 485 MiB (7%)
Title : Профессиональный многоголосый [студия "Мельница"]
Language : Russian
Service kind : Complete Main
Default : Yes
Forced : No

Audio #2
ID : 3
Format : AC-3
Format/Info : Audio Coding 3
Codec ID : A_AC3
Duration : 2 h 31 min
Bit rate mode : Constant
Bit rate : 384 kb/s
Channel(s) : 6 channels
Channel positions : Front: L C R, Side: L R, LFE
Sampling rate : 48.0 kHz
Frame rate : 31.250 FPS (1536 SPF)
Bit depth : 16 bits
Compression mode : Lossy
Stream size : 415 MiB (6%)
Title : Original
Language : Swedish
Service kind : Complete Main
Default : No
Forced : No

Text
ID : 4
Format : UTF-8
Codec ID : S_TEXT/UTF8
Codec ID/Info : UTF-8 Plain Text
Duration : 2 h 25 min
Bit rate : 45 b/s
Count of elements : 1414
Stream size : 48.5 KiB (0%)
Language : English
Default : No
Forced : No

Menu
00:00:00.000 : en:1
00:08:35.765 : en:2
00:20:07.248 : en:3
00:27:38.699 : en:4
00:41:28.737 : en:5
00:49:20.959 : en:6
00:58:54.574 : en:7
01:06:36.702 : en:8
01:16:14.863 : en:9
01:26:28.309 : en:10
01:34:37.339 : en:11
01:43:41.466 : en:12
01:55:52.989 : en:13
02:04:27.169 : en:14
02:18:08.907 : en:15
02:23:35.650 : en:16
Скриншоты






The.Square.2017.WEB-DL.Rip.1080p.H264.AC3-Unknown.torrent (16.74 KB)

分享到: 新浪微博新浪微博 QQ空间QQ空间 腾讯微博腾讯微博 腾讯朋友腾讯朋友

多谢发帖

TOP

多谢超版分享

TOP

多谢楼主分享

TOP

感谢版主分享
花落滿懷  暗香盈袖  淡淡歡喜淡淡愁

TOP

返回列表