返回列表 发帖

[1080P] 斯大林之死/史达林葛屁了!(台) The.Death.of.Stalin.2017.1080p.BluRay.x264.DTS-HD.MA.5.1-FGT




◎译  名 斯大林之死/史达林葛屁了!(台)
◎片  名 The Death of Stalin
◎年  代 2017
◎国  家 英国/法国
◎类  别 传记/喜剧/剧情
◎语  言 英语
◎IMDb评分 7.6/10 from 7806 users
◎IMDB链接 http://www.imdb.com/title/tt4686844/
◎文件格式 x264 + DTS
◎视频尺寸 1920x1040
◎文件大小 8.15 GiB
◎片  长 1 h 46 min
◎导  演 阿尔曼多·伊安努奇 Armando Iannucci
◎主  演 安德丽亚·瑞斯波罗格 Andrea Riseborough
       詹森·艾萨克 Jason Isaacs
       欧嘉·柯瑞兰寇 Olga Kurylenko
       史蒂夫·布西密 Steve Buscemi
       鲁伯特·弗兰德 Rupert Friend
       理查德·布雷克 Richard Brake
       杰弗里·塔伯 Jeffrey Tambor
       帕迪·康斯戴恩 Paddy Considine
       麦克·帕林 Michael Palin
       戴安娜·奎克 Diana Quick
       西蒙·拉塞尔·比尔 Simon Russell Beale
       乔纳森·阿里斯 Jonathan Aris
       尼古拉斯·伍德森 Nicholas Woodeson
       罗杰·阿什顿-格里菲斯 Roger Ashton-Griffiths
       Paul Ready


       


◎简  介

  该片根据Fabien-Nury同名漫画改编,讲述了斯大林去世后苏共高层激烈的权力争斗。


Video
ID                                       : 1
Format                                   : AVC
Format/Info                              : Advanced Video Codec
Format profile                           : High@L4.1
Format settings                          : CABAC / 4 Ref Frames
Format settings, CABAC                   : Yes
Format settings, ReFrames                : 4 frames
Codec ID                                 : V_MPEG4/ISO/AVC
Duration                                 : 1 h 46 min
Bit rate                                 : 9 160 kb/s
Width                                    : 1 920 pixels
Height                                   : 1 040 pixels
Display aspect ratio                     : 1.85:1
Frame rate mode                          : Constant
Frame rate                               : 24.000 FPS
Color space                              : YUV
Chroma subsampling                       : 4:2:0
Bit depth                                : 8 bits
Scan type                                : Progressive
Bits/(Pixel*Frame)                       : 0.191
Stream size                              : 6.82 GiB (84%)
Title                                    : The.Death.of.Stalin.2017.1080p.BluRay.x264.DTS-HD.MA.5.1-FGT
Writing library                          : x264 core 155 r2901 7d0ff22
Encoding settings                        : cabac=1 / ref=4 / deblock=1:-3:-3 / analyse=0x3:0x113 / me=umh / subme=8 / psy=1 / psy_rd=1.00:0.00 / mixed_ref=1 / me_range=32 / chroma_me=1 / trellis=1 / 8x8dct=1 / cqm=0 / deadzone=21,11 / fast_pskip=1 / chroma_qp_offset=-2 / threads=24 / lookahead_threads=4 / sliced_threads=0 / nr=0 / decimate=1 / interlaced=0 / bluray_compat=0 / constrained_intra=0 / bframes=3 / b_pyramid=2 / b_adapt=2 / b_bias=0 / direct=3 / weightb=1 / open_gop=0 / weightp=2 / keyint=240 / keyint_min=24 / scenecut=40 / intra_refresh=0 / rc_lookahead=50 / rc=2pass / mbtree=1 / bitrate=9160 / ratetol=1.0 / qcomp=0.60 / qpmin=0 / qpmax=69 / qpstep=4 / cplxblur=20.0 / qblur=0.5 / ip_ratio=1.40 / aq=3:0.80
Default                                  : Yes
Forced                                   : No

Audio
ID                                       : 2
Format                                   : DTS
Format/Info                              : Digital Theater Systems
Format profile                           : MA / Core
Codec ID                                 : A_DTS
Duration                                 : 1 h 46 min
Bit rate mode                            : Variable / Constant
Bit rate                                 : 1 769 kb/s / 1 509 kb/s
Channel(s)                               : 6 channels
Channel positions                        : Front: L C R, Side: L R, LFE
Sampling rate                            : 48.0 kHz
Frame rate                               : 93.750 FPS (512 SPF)
Bit depth                                : 16 bits
Compression mode                         : Lossless / Lossy
Stream size                              : 1.32 GiB (16%)
Title                                    : The.Death.of.Stalin.2017.1080p.BluRay.x264.DTS-HD.MA.5.1-FGT
Language                                 : English
Default                                  : Yes
Forced                                   : No

Text #1
ID                                       : 3
Format                                   : UTF-8
Codec ID                                 : S_TEXT/UTF8
Codec ID/Info                            : UTF-8 Plain Text
Duration                                 : 1 h 36 min
Bit rate                                 : 85 b/s
Count of elements                        : 1706
Stream size                              : 60.6 KiB (0%)
Title                                    : English-SRT
Language                                 : English
Default                                  : Yes
Forced                                   : No

Text #2
ID                                       : 4
Format                                   : UTF-8
Codec ID                                 : S_TEXT/UTF8
Codec ID/Info                            : UTF-8 Plain Text
Duration                                 : 1 h 39 min
Bit rate                                 : 89 b/s
Count of elements                        : 1842
Stream size                              : 65.1 KiB (0%)
Title                                    : English-SDH-SRT
Language                                 : English
Default                                  : No
Forced                                   : No

Text #3
ID                                       : 5
Format                                   : PGS
Muxing mode                              : zlib
Codec ID                                 : S_HDMV/PGS
Codec ID/Info                            : Picture based subtitle format used on BDs/HD-DVDs
Duration                                 : 1 h 39 min
Bit rate                                 : 69.0 kb/s
Count of elements                        : 3684
Stream size                              : 49.1 MiB (1%)
Title                                    : English-PGS
Language                                 : English
Default                                  : No
Forced                                   : No

Menu
00:00:00.000                             : en:00:00:00.000
00:06:38.875                             : en:00:06:38.875
00:13:02.583                             : en:00:13:02.583
00:19:53.125                             : en:00:19:53.125
00:29:06.125                             : en:00:29:06.125
00:33:58.250                             : en:00:33:58.250
00:40:22.417                             : en:00:40:22.417
00:45:28.000                             : en:00:45:28.000
00:50:35.000                             : en:00:50:35.000
00:58:40.750                             : en:00:58:40.750
01:03:23.667                             : en:01:03:23.667
01:12:31.750                             : en:01:12:31.750
01:17:42.917                             : en:01:17:42.917
01:24:49.000                             : en:01:24:49.000
01:33:33.708                             : en:01:33:33.708
01:39:25.583                             : en:01:39:25.583












The.Death.of.Stalin.2017.1080p.BluRay.x264.DTS-HD.MA.5.1-FGT.torrent (82.02 KB)

分享到: 新浪微博新浪微博 QQ空间QQ空间 腾讯微博腾讯微博 腾讯朋友腾讯朋友

多谢超版分享

TOP

感谢牡丹分享

TOP

多谢楼主分享

TOP

感谢版主分享
花落滿懷  暗香盈袖  淡淡歡喜淡淡愁

TOP

感谢楼主分享,谢谢
luckygod

TOP

返回列表