返回列表 发帖

[BDRIP] 勇士之门 The.Warriors.Gate.2017.TRUEFRENCH.BDRip.XviD-PREUMS




◎译  名 勇士之门
◎片  名 The Warriors Gate
◎年  代 2017
◎国  家 法国/中国
◎类  别 动作/冒险
◎语  言 法语
◎字  幕 N/A
◎IMDb评分 5.3/10 from 2,698 users
◎IMDB链接 http://www.imdb.com/title/tt4652532/
◎文件格式 XVID + MP3
◎视频尺寸 720x304
◎文件大小 697 MiB
◎片  长 1 h 45 min
◎导  演 马蒂亚斯·霍恩 Matthias Hoene
◎主  演 赵又廷 Mark Chao
       倪妮 Ni Ni
       尤赖亚·谢尔顿 Uriah Shelton
       吴镇宇 Francis Ng
       戴夫·巴蒂斯塔 Dave Bautista
       惠英红 Kara Wai Ying Hung
       奚梦瑶 Ming Xi



◎简  介

  废柴男孩机缘巧合地开启了异世界的大门,卷入了一场惊心动魄的种族斗争:赵又廷饰演的武士和倪妮饰演的公主与戴夫•巴蒂斯坦带领的蛮人军队斗智斗勇,不仅如此,两位身负国家和种族命运的勇士还要面对凶悍的蛮人和伺机夺命的巨人、树妖等精怪。一次次险象环生的经历,他们一直在等待传说中的黑骑士到来……

花絮

.为了保证电影里幻境的精致以及每位人物角色的造型炫酷,中法顶尖制作团队在《勇士之门》开拍前就耗时数月为影片设计了多种造型方案和场景画面。

.影片中,倪妮还有众多动作戏份,她此前从未体验过动作戏,她说:“我很喜欢这部电影里的打戏,在拍摄前我还和现场的老师学习了打戏的动作。”

.奚梦瑶透露:“我提前半个月就进组训练,练习吊钢丝舞刀弄枪。这是我第一次拍打戏,现场拍摄的时候还是遇到一些困难,白天拍摄还不觉得怎样,但晚上回去后发现身体很多地方都瘀青。

General
Complete name                  : The.Warriors.Gate.2017.TRUEFRENCH.BDRip.XviD-PREUMS.WwW.Torrent9.pe\The.Warriors.Gate.2017.TRUEFRENCH.BDRip.XviD-PREUMS.avi
Format                         : AVI
Format/Info                    : Audio Video Interleave
File size                      : 697 MiB
Duration                       : 1 h 45 min
Overall bit rate               : 925 kb/s
Movie name                     : twgvfix264-zone
Writing application            : Lavf56.40.101

Video
ID                             : 0
Format                         : MPEG-4 Visual
Format profile                 : Advanced Simple@L5
Format settings                : BVOP2
Format settings, BVOP          : 2
Format settings, QPel          : No
Format settings, GMC           : No warppoints
Format settings, Matrix        : Default (MPEG)
Muxing mode                    : Packed bitstream
Codec ID                       : XVID
Codec ID/Hint                  : XviD
Duration                       : 1 h 45 min
Bit rate                       : 786 kb/s
Width                          : 720 pixels
Height                         : 304 pixels
Display aspect ratio           : 2.35:1
Frame rate                     : 23.976 (24000/1001) FPS
Original frame rate            : 23.976 (23976/1000) FPS
Color space                    : YUV
Chroma subsampling             : 4:2:0
Bit depth                      : 8 bits
Scan type                      : Progressive
Compression mode               : Lossy
Bits/(Pixel*Frame)             : 0.150
Stream size                    : 591 MiB (85%)
Writing library                : XviD 67

Audio
ID                             : 1
Format                         : MPEG Audio
Format version                 : Version 1
Format profile                 : Layer 3
Format settings                : Joint stereo / MS Stereo
Codec ID                       : 55
Codec ID/Hint                  : MP3
Duration                       : 1 h 45 min
Bit rate mode                  : Constant
Bit rate                       : 128 kb/s
Channel(s)                     : 2 channels
Sampling rate                  : 48.0 kHz
Compression mode               : Lossy
Stream size                    : 96.5 MiB (14%)
Alignment                      : Aligned on interleaves
Interleave, duration           : 24  ms (0.57 video frame)
Writing library                : LAME3.98.2


The.Warriors.Gate.2017.TRUEFRENCH.BDRip.XviD-PREUMS.torrent (30.33 KB)

分享到: 新浪微博新浪微博 QQ空间QQ空间 腾讯微博腾讯微博 腾讯朋友腾讯朋友

多谢超版分享

TOP

多谢楼主分享

TOP

不知道好不好看

TOP

to see thanks
                                                     ^^$

TOP

返回列表