返回列表 发帖

[1080P] 潦倒岁月/最后一位电影明星 The.Last.Movie.Star.2017.1080p.BluRay.x264.DTS-HD.MA.5.1-FGT



◎译  名 潦倒岁月/最后一位电影明星
◎片  名 The Last Movie Star
◎年  代 2017
◎国  家 美国
◎类  别 剧情
◎语  言 英语
◎IMDb评分 6.9/10 from 569  users
◎IMDB链接 http://www.imdb.com/title/tt5836316
◎片  长 1 h 43 min
◎导  演 亚当·莱福金 Adam Rifkin
◎主  演 伯特·雷诺兹 Burt Reynolds
      阿芮尔·温特 Ariel Winter
      克拉克·杜克 Clark Duke
      埃拉·科尔特兰 Ellar Coltrane
      妮基·布朗斯凯 Nikki Blonsky
      切维·切斯 Chevy Chase
      科迪·朗格 Cody Longo
      贾斯汀·斯特里特 Juston Street
      Kathleen Nolan
      Izzy Fenech

◎简介

  An aging former movie star is forced to face the reality that his glory days are behind him. On its surface, the film is a tale about faded fame. At its core, it's a universal story about growing old.


Video
ID                                       : 1
Format                                   : AVC
Format/Info                              : Advanced Video Codec
Format profile                           : High@L4.1
Format settings                          : CABAC / 5 Ref Frames
Format settings, CABAC                   : Yes
Format settings, ReFrames                : 5 frames
Codec ID                                 : V_MPEG4/ISO/AVC
Duration                                 : 1 h 43 min
Bit rate                                 : 9 052 kb/s
Width                                    : 1 920 pixels
Height                                   : 800 pixels
Display aspect ratio                     : 2.40:1
Frame rate mode                          : Constant
Frame rate                               : 23.976 (24000/1001) FPS
Color space                              : YUV
Chroma subsampling                       : 4:2:0
Bit depth                                : 8 bits
Scan type                                : Progressive
Bits/(Pixel*Frame)                       : 0.246
Stream size                              : 6.55 GiB (72%)
Title                                    : The.Last.Movie.Star.2017.1080p.BluRay.x264.DTS-HD.MA.5.1-FGT
Writing library                          : x264 core 155 r2901 7d0ff22
Encoding settings                        : cabac=1 / ref=5 / deblock=1:-3:-3 / analyse=0x3:0x133 / me=umh / subme=8 / psy=1 / psy_rd=1.00:0.00 / mixed_ref=1 / me_range=16 / chroma_me=1 / trellis=1 / 8x8dct=1 / cqm=0 / deadzone=21,11 / fast_pskip=0 / chroma_qp_offset=-2 / threads=25 / lookahead_threads=4 / sliced_threads=0 / nr=0 / decimate=1 / interlaced=0 / bluray_compat=0 / constrained_intra=0 / bframes=3 / b_pyramid=2 / b_adapt=1 / b_bias=0 / direct=3 / weightb=1 / open_gop=0 / weightp=2 / keyint=250 / keyint_min=23 / scenecut=40 / intra_refresh=0 / rc_lookahead=50 / rc=2pass / mbtree=1 / bitrate=9052 / ratetol=1.0 / qcomp=0.60 / qpmin=0 / qpmax=69 / qpstep=4 / cplxblur=20.0 / qblur=0.5 / vbv_maxrate=62500 / vbv_bufsize=78125 / nal_hrd=none / filler=0 / ip_ratio=1.40 / aq=1:1.00
Default                                  : Yes
Forced                                   : No

Audio
ID                                       : 2
Format                                   : DTS
Format/Info                              : Digital Theater Systems
Format profile                           : MA / Core
Codec ID                                 : A_DTS
Duration                                 : 1 h 43 min
Bit rate mode                            : Variable / Constant
Bit rate                                 : 3 453 kb/s / 1 509 kb/s
Channel(s)                               : 6 channels
Channel positions                        : Front: L C R, Side: L R, LFE
Sampling rate                            : 48.0 kHz
Frame rate                               : 93.750 FPS (512 SPF)
Bit depth                                : 24 bits
Compression mode                         : Lossless / Lossy
Stream size                              : 2.50 GiB (28%)
Title                                    : The.Last.Movie.Star.2017.1080p.BluRay.x264.DTS-HD.MA.5.1-FGT
Language                                 : English
Default                                  : Yes
Forced                                   : No

Text #1
ID                                       : 3
Format                                   : UTF-8
Codec ID                                 : S_TEXT/UTF8
Codec ID/Info                            : UTF-8 Plain Text
Duration                                 : 1 h 42 min
Bit rate                                 : 69 b/s
Count of elements                        : 1583
Stream size                              : 51.6 KiB (0%)
Title                                    : English-SRT
Language                                 : English
Default                                  : Yes
Forced                                   : No

Text #2
ID                                       : 4
Format                                   : PGS
Muxing mode                              : zlib
Codec ID                                 : S_HDMV/PGS
Codec ID/Info                            : Picture based subtitle format used on BDs/HD-DVDs
Duration                                 : 1 h 42 min
Bit rate                                 : 48.1 kb/s
Count of elements                        : 3177
Stream size                              : 35.2 MiB (0%)
Title                                    : English-PGS
Language                                 : English
Default                                  : No
Forced                                   : No

Menu
00:00:00.000                             : en:00:00:00.000
00:05:49.641                             : en:00:05:49.641
00:11:44.579                             : en:00:11:44.579
00:18:28.315                             : en:00:18:28.315
00:26:28.211                             : en:00:26:28.211
00:30:31.538                             : en:00:30:31.538
00:38:55.625                             : en:00:38:55.625
00:43:24.352                             : en:00:43:24.352
00:50:18.057                             : en:00:50:18.057
00:56:17.791                             : en:00:56:17.791
01:02:40.757                             : en:01:02:40.757
01:09:12.607                             : en:01:09:12.607
01:14:24.168                             : en:01:14:24.168
01:20:12.307                             : en:01:20:12.307
01:28:20.003                             : en:01:28:20.003
01:35:19.255                             : en:01:35:19.255





分享到: 新浪微博新浪微博 QQ空间QQ空间 腾讯微博腾讯微博 腾讯朋友腾讯朋友

多谢超版分享

TOP

感谢版主分享
花落滿懷  暗香盈袖  淡淡歡喜淡淡愁

TOP

多谢超版分享

TOP

高清就是好。
BT天堂 www.mkvbd.com

TOP

感谢楼主分享

TOP

返回列表