返回列表 发帖

[1080P] 黄金花 Tomorrow.is.Another.Day.2017.CHINESE.1080p.BluRay.x264-WiKi




◎译  名 黄金花
◎片  名 Tomorrow Is Another Day
◎年  代 2017
◎国  家 中国香港
◎类  别 剧情
◎语  言 普通话/粤语
◎字  幕 简体中文/繁体中文
◎IMDb评分 6.1/10 from 54 users
◎IMDB链接 http://www.imdb.com/title/tt7875604
◎文件格式 x264 + AC3
◎视频尺寸 1920 x 1012  
◎文件大小 8.98 GiB  
◎片  长 1 h 30 min
◎导  演 陈大利 Tai-lee Chan
◎主  演 毛舜筠 Teresa Mo
      凌文龙
      吕良伟 Ray Lui
      刘美君 Mei-Guan Lau
      冼色丽 Seli Xian
      余安安 On-on Yu
      谈善言 Hedwig Tam
      郑欣宜 Joyce Cheng
      江欣燕 Elvina Kong
      林建明 Meg Lam
      林兆霞 June Lam

◎简  介

  黄金花(毛舜筠 饰),街坊邻居称之为黄师奶,视家庭重于一切,与老公(吕良伟 饰) 合力照顾患有自闭症儿子(凌文龙 饰) 20 年,岂料老公爱上狐狸精丹凤眼 (冼色丽 饰),辛苦维繫的家庭瞬间变得零散,不知所措的黄金花更因而萌起杀死小三的复仇计划!一众师奶们无意中揭破她的密谋,从慌张慢慢变成支持。正当黄金花逐步迈向目标之际,她赫然醒悟:成为真正不再失败的女人,原来还有更好的出路……

获奖记录

香港电影金像奖(2018;第37届)
获奖
·金像奖-最佳女主角毛舜筠 Teresa Mo  
·金像奖-最佳新演员凌文龙 Ling Man Lung  
提名
·金像奖-最佳男主角凌文龙 Ling Man Lung  
·金像奖-新晋导演陈大利 Dali Chen  

上海国际电影节(2017;第20届)
提名
·亚洲新人奖-最佳男演员凌文龙 Ling Man Lung  
Video
ID : 1
Format : AVC
Format/Info : Advanced Video Codec
Format profile : High@L4.1
Format settings : CABAC / 4 Ref Frames
Format settings, CABAC : Yes
Format settings, ReFrames : 4 frames
Codec ID : V_MPEG4/ISO/AVC
Duration : 1 h 30 min
Bit rate : 12.9 Mb/s
Width : 1 920 pixels
Height : 1 012 pixels
Display aspect ratio : 1.897
Frame rate mode : Constant
Frame rate : 24.000 FPS
Color space : YUV
Chroma subsampling : 4:2:0
Bit depth : 8 bits
Scan type : Progressive
Bits/(Pixel*Frame) : 0.276
Stream size : 8.16 GiB (91%)
Writing library : x264 core 129 r2245 bc13772
Encoding settings : cabac=1 / ref=4 / deblock=1:-3:-3 / analyse=0x3:0x133 / me=umh / subme=11 / psy=1 / psy_rd=1.05:0.05 / mixed_ref=1 / me_range=64 / chroma_me=1 / trellis=2 / 8x8dct=1 / cqm=0 / deadzone=21,11 / fast_pskip=0 / chroma_qp_offset=-3 / threads=12 / lookahead_threads=2 / sliced_threads=0 / nr=0 / decimate=1 / interlaced=0 / bluray_compat=0 / constrained_intra=0 / bframes=8 / b_pyramid=2 / b_adapt=2 / b_bias=0 / direct=3 / weightb=1 / open_gop=0 / weightp=2 / keyint=250 / keyint_min=24 / scenecut=40 / intra_refresh=0 / rc_lookahead=60 / rc=2pass / mbtree=1 / bitrate=12881 / ratetol=1.0 / qcomp=0.60 / qpmin=0 / qpmax=69 / qpstep=4 / cplxblur=20.0 / qblur=0.5 / vbv_maxrate=40000 / vbv_bufsize=30000 / nal_hrd=none / ip_ratio=1.40 / aq=1:0.60
Language : English
Default : Yes
Forced : No

Audio #1
ID : 2
Format : AC-3
Format/Info : Audio Coding 3
Codec ID : A_AC3
Duration : 1 h 30 min
Bit rate mode : Constant
Bit rate : 640 kb/s
Channel(s) : 6 channels
Channel positions : Front: L C R, Side: L R, LFE
Sampling rate : 48.0 kHz
Frame rate : 31.250 FPS (1536 SPF)
Bit depth : 16 bits
Compression mode : Lossy
Stream size : 416 MiB (5%)
Title : 粤语
Language : Chinese
Service kind : Complete Main
Default : Yes
Forced : No

Audio #2
ID : 3
Format : AC-3
Format/Info : Audio Coding 3
Codec ID : A_AC3
Duration : 1 h 30 min
Bit rate mode : Constant
Bit rate : 640 kb/s
Channel(s) : 6 channels
Channel positions : Front: L C R, Side: L R, LFE
Sampling rate : 48.0 kHz
Frame rate : 31.250 FPS (1536 SPF)
Bit depth : 16 bits
Compression mode : Lossy
Stream size : 416 MiB (5%)
Title : 国语
Language : Chinese
Service kind : Complete Main
Default : No
Forced : No

Text #1
ID : 4
Format : UTF-8
Codec ID : S_TEXT/UTF8
Codec ID/Info : UTF-8 Plain Text
Duration : 1 h 23 min
Bit rate : 24 b/s
Count of elements : 768
Stream size : 15.2 KiB (0%)
Title : 简体
Language : Chinese
Default : Yes
Forced : No

Text #2
ID : 5
Format : UTF-8
Codec ID : S_TEXT/UTF8
Codec ID/Info : UTF-8 Plain Text
Duration : 1 h 23 min
Bit rate : 24 b/s
Count of elements : 768
Stream size : 15.2 KiB (0%)
Title : 繁体
Language : Chinese
Default : No
Forced : No





Tomorrow.is.Another.Day.2017.CHINESE.1080p.BluRay.x264-WiKi.torrent (90.33 KB)

分享到: 新浪微博新浪微博 QQ空间QQ空间 腾讯微博腾讯微博 腾讯朋友腾讯朋友

多谢超版分享

TOP

不错不错 谢谢分享

TOP

感谢版主分享
花落滿懷  暗香盈袖  淡淡歡喜淡淡愁

TOP

多谢超版分享

TOP

看了评价不好。。

TOP

返回列表