返回列表 发帖

[720P] 亲吻坎蒂丝 Kissing.Candice.2017.720p.BluRay.x264.DTS-CHD



◎译  名 亲吻坎蒂丝
◎片  名 Kissing Candice
◎年  代 2017
◎国  家 加拿大
◎类  别 剧情/惊悚
◎语  言 英语
◎IMDb评分 6.7/10 from 101 users
◎IMDB链接 http://www.imdb.com/title/tt5225428
◎片  长 1 h 47 min
◎导  演 Aoife McArdle
◎主  演 Ann Skelly
       Ryan McParland
       John Lynch

◎简  介

  十七岁的坎蒂丝经常做梦,她在发病时做的梦往往是最清晰真实的。在一次梦中,她遇见一位正在梦游的英俊男孩。这个梦一直萦绕在她脑海中,尤其是因为她希望逃离现实,活在美好的梦中。她一边想着离开这个无聊阴沉的海边小镇,另一边还在震惊于当地一个男孩的失踪事件。“在北爱尔兰问题时期,这里还更安全一点。” 坎蒂丝的警察父亲说道,因为当地的恶棍团伙不断惹出暴力事件,导致当地越来越危险。坎蒂丝在现实中遇到了一个长得很像梦游男孩的人,感觉世界从此被点亮。坎蒂丝虽然迷恋这个惴惴不安的陌生男孩,但后来得知,他居然是父亲决心要除掉的其中一名恶棍。

Video
ID : 1
Format : AVC
Format/Info : Advanced Video Codec
Format profile : High@L4.1
Format settings : CABAC / 9 Ref Frames
Format settings, CABAC : Yes
Format settings, ReFrames : 9 frames
Codec ID : V_MPEG4/ISO/AVC
Duration : 1 h 47 min
Bit rate : 5 211 kb/s
Width : 1 280 pixels
Height : 534 pixels
Display aspect ratio : 2.40:1
Frame rate mode : Constant
Frame rate : 23.976 (24000/1001) FPS
Color space : YUV
Chroma subsampling : 4:2:0
Bit depth : 8 bits
Scan type : Progressive
Bits/(Pixel*Frame) : 0.318
Stream size : 3.92 GiB (78%)
Writing library : x264 core 155 r2867+74 66b5600 t_mod_Custom_2 [8-bit@all X86_64]
Encoding settings : cabac=1 / ref=9 / deblock=1:-3:-3 / analyse=0x3:0x113 / me=umh / subme=10 / psy=1 / fade_compensate=0.00 / psy_rd=0.90:0.10 / mixed_ref=1 / me_range=32 / chroma_me=1 / trellis=2 / 8x8dct=1 / cqm=0 / deadzone=21,11 / fast_pskip=0 / chroma_qp_offset=-2 / threads=17 / lookahead_threads=2 / sliced_threads=0 / nr=0 / decimate=1 / interlaced=0 / bluray_compat=0 / constrained_intra=0 / fgo=0 / bframes=8 / b_pyramid=2 / b_adapt=2 / b_bias=0 / direct=3 / weightb=1 / open_gop=0 / weightp=2 / keyint=250 / keyint_min=23 / scenecut=40 / intra_refresh=0 / rc_lookahead=40 / rc=crf / mbtree=0 / crf=19.0000 / qcomp=0.70 / qpmin=0:0:0 / qpmax=69:69:69 / qpstep=4 / vbv_maxrate=30000 / vbv_bufsize=30000 / crf_max=0.0 / nal_hrd=none / filler=0 / ip_ratio=1.40 / pb_ratio=1.30 / aq=3:0.90 / aq-sensitivity=10.00 / aq-factor=1.00:1.00:1.00 / aq2=0 / aq3=2:[0.50:0.50]:[0.50:0.50]:[0.50:0.50]:[0.50:0.50] / aq3-sensitivity=10.00 / aq3-factor=[1.00:1.00]:[1.00:1.00]:[1.00:1.00] / aq3-boundary=192:64:24
Language : English
Default : Yes
Forced : No
Color range : Limited
Matrix coefficients : BT.709

Audio
ID : 2
Format : DTS
Format/Info : Digital Theater Systems
Codec ID : A_DTS
Duration : 1 h 47 min
Bit rate mode : Constant
Bit rate : 1 509 kb/s
Channel(s) : 6 channels
Channel positions : Front: L C R, Side: L R, LFE
Sampling rate : 48.0 kHz
Frame rate : 93.750 FPS (512 SPF)
Bit depth : 24 bits
Compression mode : Lossy
Stream size : 1.14 GiB (22%)
Language : English
Default : Yes
Forced : No

Menu
00:00:00.000 : en:00:00:00.000
00:10:13.196 : en:00:10:13.196
00:19:53.401 : en:00:19:53.401
00:29:25.263 : en:00:29:25.263
00:39:03.800 : en:00:39:03.800
00:49:57.453 : en:00:49:57.453
01:00:33.964 : en:01:00:33.964
01:10:06.702 : en:01:10:06.702
01:20:51.472 : en:01:20:51.472






Kissing.Candice.2017.720p.BluRay.x264.DTS-CHD.torrent (51.14 KB)

分享到: 新浪微博新浪微博 QQ空间QQ空间 腾讯微博腾讯微博 腾讯朋友腾讯朋友

感谢版主分享

TOP

多谢超版分享

TOP

多谢我们的超版分享

TOP

多谢我们的超版分享

TOP

返回列表