返回列表 发帖

[720P] 宫合/命相/合婚/野蛮公主玩婚记(台) The.Princess.and.the.Matchmaker.2018.KOREAN.720p.BluRay.x264.DTS-FGT



◎译  名 宫合/命相/合婚/野蛮公主玩婚记(台)
◎片  名 궁합 / Gung-hab / The Princess and the Matchmaker
◎年  代 2018
◎产  地 韩国
◎类  别 喜剧/历史/爱情
◎语  言 韩语
◎字  幕 英文
◎IMDb评分 6.3/10 from 106 users
◎IMDb链接 http://www.imdb.com/title/tt5961314
◎片  长 1 h 49 min
◎导  演 洪昌杓 Hong Chang-Pyo
◎主  演 沈恩京 Eun-kyung Shim
      李昇基 Seung gi Lee
      金相庆 Sang-kyung Kim
      延宇振 Woo-jin Yeon
      姜敏赫 Min-Hyuk Kang
      崔宇植 Woo-Sik Choi
      赵福来 Bok-rae Jo
      崔珉豪 Min-ho Choi
      朴善英 Seon-yeong Park
      曹秀香 Cho Soo-hyang
      朴忠善 Choong-seon Park
      孫成燦 Son Seong-chan
      宋英才 Song Young-jae
      李娜允 Lee Na-yoon
      宋光元 Song Kwang-won
      朱多英 Da-Yeong Ju
      崔俊昊 Choi Jun-ho
      姜倫制 Kang Yoon-je
      李善彬 Sun-bin Lee
      李龙女 Lee yong-nyu
      朴智一 Ji-il Park
      尹有善 Yu-seon Yun
      李润健 Lee Yoon-gun
      崔玟秀 Choi Moon-soo
      柳正浩 Yoo Jung-ho
      徐佑镇 Woo-Jin Seo

◎简  介

  讲述的是拒绝宫中所定下的婚事的松花公主(沈恩京)和为了看驸马候选人们的命相而入宫的最厉害的命相家徐道允(李胜基)那不得了的命运的故事。
Video
ID : 1
Format : AVC
Format/Info : Advanced Video Codec
Format profile : High@L4.1
Format settings : CABAC / 4 Ref Frames
Format settings, CABAC : Yes
Format settings, ReFrames : 4 frames
Codec ID : V_MPEG4/ISO/AVC
Duration : 1 h 49 min
Bit rate : 5 500 kb/s
Width : 1 280 pixels
Height : 536 pixels
Display aspect ratio : 2.40:1
Frame rate mode : Constant
Frame rate : 23.976 (24000/1001) FPS
Color space : YUV
Chroma subsampling : 4:2:0
Bit depth : 8 bits
Scan type : Progressive
Bits/(Pixel*Frame) : 0.334
Stream size : 4.23 GiB (78%)
Title : The.Princess.and.the.Matchmaker.2018.KOREAN.720p.BluRay.x264.DTS-FGT
Writing library : x264 core 148 r2795M aaa9aa8
Encoding settings : cabac=1 / ref=4 / deblock=1:-2:-2 / analyse=0x3:0x113 / me=umh / subme=9 / psy=1 / psy_rd=1.00:0.15 / mixed_ref=1 / me_range=16 / chroma_me=1 / trellis=2 / 8x8dct=1 / cqm=0 / deadzone=21,11 / fast_pskip=1 / chroma_qp_offset=-3 / threads=24 / lookahead_threads=3 / sliced_threads=0 / nr=0 / decimate=1 / interlaced=0 / bluray_compat=0 / constrained_intra=0 / bframes=3 / b_pyramid=2 / b_adapt=1 / b_bias=0 / direct=3 / weightb=1 / open_gop=0 / weightp=2 / keyint=250 / keyint_min=25 / scenecut=40 / intra_refresh=0 / rc_lookahead=50 / rc=2pass / mbtree=1 / bitrate=5500 / ratetol=1.0 / qcomp=0.60 / qpmin=0 / qpmax=69 / qpstep=4 / cplxblur=20.0 / qblur=0.5 / vbv_maxrate=31250 / vbv_bufsize=31250 / nal_hrd=none / filler=0 / ip_ratio=1.40 / aq=1:1.00
Language : Korean
Default : Yes
Forced : No

Audio
ID : 2
Format : DTS
Format/Info : Digital Theater Systems
Codec ID : A_DTS
Duration : 1 h 49 min
Bit rate mode : Constant
Bit rate : 1 509 kb/s
Channel(s) : 6 channels
Channel positions : Front: L C R, Side: L R, LFE
Sampling rate : 48.0 kHz
Frame rate : 93.750 FPS (512 SPF)
Bit depth : 24 bits
Compression mode : Lossy
Stream size : 1.16 GiB (22%)
Title : The.Princess.and.the.Matchmaker.2018.KOREAN.720p.BluRay.x264.DTS-FGT
Language : Korean
Default : No
Forced : No

Text
ID : 3
Format : UTF-8
Codec ID : S_TEXT/UTF8
Codec ID/Info : UTF-8 Plain Text
Duration : 1 h 45 min
Bit rate : 45 b/s
Count of elements : 1142
Stream size : 35.5 KiB (0%)
Title : English
Language : English
Default : Yes
Forced : Yes

Menu
00:00:00.000 : en:Chapter 01
00:10:51.942 : en:Chapter 02
00:19:54.943 : en:Chapter 03
00:27:08.418 : en:Chapter 04
00:33:52.113 : en:Chapter 05
00:44:50.604 : en:Chapter 06
00:53:38.298 : en:Chapter 07
01:04:22.525 : en:Chapter 08
01:16:15.737 : en:Chapter 09
01:24:19.304 : en:Chapter 10
01:34:10.436 : en:Chapter 11
01:43:28.327 : en:Chapter 12





分享到: 新浪微博新浪微博 QQ空间QQ空间 腾讯微博腾讯微博 腾讯朋友腾讯朋友

多谢我们的超版分享

TOP

多谢超版分享

TOP

感谢分享

TOP

棒子没啥可演了。。

TOP

返回列表