返回列表 发帖

[1080P] 明日之屋 The.House.of.Tomorrow.2017.1080p.BluRay.x264.DTS-HD.MA.5.1-MT




◎译  名 明日之屋
◎片  名 The House of Tomorrow
◎年  代 2017
◎国  家 美国
◎类  别 喜剧/剧情
◎语  言 英语
◎IMDb评分 6.3/10 from 216 users
◎IMDB链接 https://www.imdb.com/title/tt5910344
◎片  长 1 h 25 min
◎导  演 Peter Livolsi
◎主  演 阿萨·巴特菲尔德 Asa Butterfield
      尼克·奥弗曼 Nick Offerman
      亚历克斯·沃尔夫 Alex Wolff
      艾伦·伯斯汀 Ellen Burstyn
      茉德·阿帕图 Maude Apatow
      麦可拉·沃金丝 Michaela Watkins
      Alec George
      Valerie Rose
      J. Vasko-Bezenek
      Paul Cram
      Karla álvarez
      Ryan J. Gilmer
      Dallas Hildie Smith
      Matt Lindholm
      Steven Segelstrom II

◎简  介


  The film tells futurist, architect, and inventor R. Buckminster Fuller's incredible story through two teens hoping to get laid, become punk gods, and survive high school.
Video
ID : 1
Format : AVC
Format/Info : Advanced Video Codec
Format profile : High@L4.1
Format settings : CABAC / 4 Ref Frames
Format settings, CABAC : Yes
Format settings, ReFrames : 4 frames
Codec ID : V_MPEG4/ISO/AVC
Duration : 1 h 25 min
Bit rate : 10.7 Mb/s
Width : 1 920 pixels
Height : 1 036 pixels
Display aspect ratio : 1.85:1
Frame rate mode : Constant
Frame rate : 23.976 (24000/1001) FPS
Color space : YUV
Chroma subsampling : 4:2:0
Bit depth : 8 bits
Scan type : Progressive
Bits/(Pixel*Frame) : 0.225
Stream size : 6.44 GiB (79%)
Writing library : x264 core 155 r2867+82 a249126 t_mod_Custom_2 [8-bit@all X86_64]
Encoding settings : cabac=1 / ref=4 / deblock=1:-3:-3 / analyse=0x3:0x113 / me=umh / subme=10 / psy=1 / fade_compensate=0.00 / psy_rd=1.00:0.05 / mixed_ref=1 / me_range=48 / chroma_me=1 / trellis=2 / 8x8dct=1 / cqm=0 / deadzone=21,11 / fast_pskip=0 / chroma_qp_offset=-2 / threads=12 / lookahead_threads=2 / sliced_threads=0 / nr=0 / decimate=1 / interlaced=0 / bluray_compat=0 / constrained_intra=0 / fgo=0 / bframes=8 / b_pyramid=2 / b_adapt=2 / b_bias=0 / direct=3 / weightb=1 / open_gop=0 / weightp=2 / keyint=250 / keyint_min=23 / scenecut=40 / intra_refresh=0 / rc_lookahead=40 / rc=crf / mbtree=0 / crf=18.0000 / qcomp=0.60 / qpmin=0:0:0 / qpmax=69:69:69 / qpstep=4 / vbv_maxrate=50000 / vbv_bufsize=45000 / crf_max=0.0 / nal_hrd=none / filler=0 / ip_ratio=1.40 / pb_ratio=1.30 / aq=3:0.90 / aq-sensitivity=10.00 / aq-factor=1.00:1.00:1.00 / aq2=0 / aq3=0
Language : English
Default : Yes
Forced : No
Color range : Limited
Matrix coefficients : BT.709

Audio
ID : 2
Format : DTS
Format/Info : Digital Theater Systems
Format profile : MA / Core
Codec ID : A_DTS
Duration : 1 h 25 min
Bit rate mode : Variable / Constant
Bit rate : 2 794 kb/s / 1 509 kb/s
Channel(s) : 6 channels
Channel positions : Front: L C R, Side: L R, LFE
Sampling rate : 48.0 kHz
Frame rate : 93.750 FPS (512 SPF)
Bit depth : 24 bits
Compression mode : Lossless / Lossy
Stream size : 1.67 GiB (21%)
Language : English
Default : Yes
Forced : No

Menu
00:00:00.000 : en:00:00:00.000
00:11:47.040 : en:00:11:47.040
00:20:45.369 : en:00:20:45.369
00:25:45.002 : en:00:25:45.002
00:32:16.059 : en:00:32:16.059
00:38:07.619 : en:00:38:07.619
00:45:19.050 : en:00:45:19.050
00:51:53.527 : en:00:51:53.527
00:59:09.337 : en:00:59:09.337
01:06:34.449 : en:01:06:34.449
01:12:47.530 : en:01:12:47.530
01:18:29.163 : en:01:18:29.163





分享到: 新浪微博新浪微博 QQ空间QQ空间 腾讯微博腾讯微博 腾讯朋友腾讯朋友

感谢版主分享
花落滿懷  暗香盈袖  淡淡歡喜淡淡愁

TOP

多谢超版分享

TOP

感谢版主分享

TOP

返回列表