返回列表 发帖

[1080P] 摩天营救/高耸入云/摩天大楼(台)/高凶浩劫(港) Skyscraper.2018.1080p.KORSUB.HDRip.x264.AAC2.0-STUTTERSHIT





◎译  名 摩天营救/高耸入云/摩天大楼(台)/高凶浩劫(港)
◎片  名 Skyscraper
◎年  代 2018
◎国  家 美国
◎类  别 动作/冒险/剧情
◎语  言 英语
◎IMDb评分 6.1/10 from 18710 users
◎IMDB链接 https://www.imdb.com/title/tt5758778/
◎片  长 1 h 42 min
◎导  演 罗森·马歇尔·瑟伯 Rawson Marshall Thurber
◎主  演 道恩·强森 Dwayne Johnson
       内芙·坎贝尔 Neve Campbell
       黄经汉 Chin Han
       罗兰·默勒 Roland Møller
       麦肯纳·罗伯茨 McKenna Roberts
       诺亚·科特雷尔 Noah Cottrell
       诺亚·科特雷尔 Noah Cottrell     


◎简  介

  在香港市中心,世界上最高、结构最复杂的摩天大楼遭到破坏,危机一触即发。威尔·索耶(道恩·强森 饰)的妻子萨拉(内芙·坎贝尔 饰)和孩子们在98层被劫为人质,直接暴露在火线上。威尔,这位战争英雄、前联邦调查局救援队员,作为大楼的安保顾问,却被诬陷纵火和谋杀。他必须奋力营救家人,为自己洗脱罪名,关乎生死存亡的高空任务就此展开。

花絮

.主演道恩·强森称,《虎胆龙威》和《摩天大楼失火记》这两部电影“启发了我,启发了一代人,也启发了这部电影”。

.为了让情节更加可信,导演要求道恩·强森与内芙·坎贝尔两位演员在片中讲出标准的普通话跟粤语。

.昆凌坦言自己没有武术功底,与强森这样的“巨人”相比,自己太过娇小,但为这个角色做了很多功课,非常积极地参加训练与彩排,提前一个月就开始了训练。

.片中高3500英尺共240层的珍珠塔由世界闻名的美术置景设计师詹姆斯·D·比斯设计,灵感源自中国关于龙和珍珠的传说,从外形到内饰再到大楼标志均与“龙和珍珠”有关。

.导演罗森·马歇尔·瑟伯介绍,“如果你从侧面看这个建筑,你可以看到龙的眼睛。”

.设计师则表示,“这条龙从水里腾空而起,和一些曲折蜿蜒的结构缠绕在一起,直奔珍珠而去”,龙的眼睛与珍珠合二为一,成为了珍珠塔顶的圆球,“这个成为了整座建筑的隐喻。”

.为了让观众能够更真切的体验到珍珠塔的魅力,《摩天营救》剧组不仅邀请设计世界最高建筑迪拜塔的设计师阿德里安·史密斯给予咨询,更是采用实景搭建和特效绿幕双重制作保证观影效果。

Video
ID : 1
Format : AVC
Format/Info : Advanced Video Codec
Format profile : High@L4.1
Format settings : CABAC / 4 Ref Frames
Format settings, CABAC : Yes
Format settings, ReFrames : 4 frames
Codec ID : V_MPEG4/ISO/AVC
Duration : 1 h 42 min
Bit rate : 4 567 kb/s
Width : 1 920 pixels
Height : 800 pixels
Display aspect ratio : 2.40:1
Frame rate mode : Constant
Frame rate : 30.000 FPS
Color space : YUV
Chroma subsampling : 4:2:0
Bit depth : 8 bits
Scan type : Progressive
Bits/(Pixel*Frame) : 0.099
Stream size : 3.25 GiB (95%)
Title : Skyscaper.2018.1080p.KORSUB.HDRip.x264.AAC2.0-STUTTERSHIT
Writing library : x264 core 142 r2479 dd79a61
Encoding settings : cabac=1 / ref=1 / deblock=1:0:0 / analyse=0x3:0x113 / me=hex / subme=2 / psy=1 / psy_rd=1.00:0.00 / mixed_ref=0 / me_range=16 / chroma_me=1 / trellis=0 / 8x8dct=1 / cqm=0 / deadzone=21,11 / fast_pskip=1 / chroma_qp_offset=0 / threads=18 / lookahead_threads=6 / sliced_threads=0 / nr=0 / decimate=1 / interlaced=0 / bluray_compat=0 / constrained_intra=0 / bframes=3 / b_pyramid=2 / b_adapt=1 / b_bias=0 / direct=1 / weightb=1 / open_gop=0 / weightp=1 / keyint=300 / keyint_min=30 / scenecut=40 / intra_refresh=0 / rc_lookahead=10 / rc=abr / mbtree=1 / bitrate=4567 / ratetol=1.0 / qcomp=0.60 / qpmin=0 / qpmax=69 / qpstep=4 / vbv_maxrate=62500 / vbv_bufsize=78125 / nal_hrd=none / filler=0 / ip_ratio=1.40 / aq=1:1.00
Language : English
Default : Yes
Forced : No
Color range : Limited
Color primaries : BT.709
Transfer characteristics : BT.709
Matrix coefficients : BT.709

Audio
ID : 2
Format : AAC
Format/Info : Advanced Audio Codec
Format profile : LC
Codec ID : A_AAC-2
Duration : 1 h 42 min
Bit rate : 256 kb/s
Channel(s) : 2 channels
Channel positions : Front: L R
Sampling rate : 48.0 kHz
Frame rate : 46.875 FPS (1024 SPF)
Compression mode : Lossy
Stream size : 188 MiB (5%)
Title : Skyscaper.2018.1080p.KORSUB.HDRip.x264.AAC2.0-STUTTERSHIT
Language : English
Default : Yes
Forced : No





Skyscraper.2018.1080p.KORSUB.HDRip.x264.AAC2.0-STUTTERSHIT.torrent (69.23 KB)

分享到: 新浪微博新浪微博 QQ空间QQ空间 腾讯微博腾讯微博 腾讯朋友腾讯朋友

本帖最后由 nyafei 于 2018-8-11 11:19 编辑

支持,谢谢,有没有中文字幕?

TOP

感谢版主分享
花落滿懷  暗香盈袖  淡淡歡喜淡淡愁

TOP

thanks
                                                     ^^$

TOP

多谢超版分享

TOP

感谢版主分享

TOP

一朵安静的美男子

TOP

返回列表