返回列表 发帖

[1080P] 我唾弃你的坟墓 I.Spit.on.Your.Grave.1978.DC.BluRay.1920x1080p.x264.TrueHD-KOOK



◎译  名 我唾弃你的坟墓/被唾弃的坟墓(1978版/导演剪辑版)
◎片  名 I Spit On Your Gave
◎年  代 1978
◎国  家 美国
◎类  别 剧情/恐怖
◎语  言 英语
◎字  幕 N简体中文/繁体中文/英文
◎IMDB评分 5.2/10 (7,048 votes)
◎IMDB链接 http://www.imdb.com/title/tt0077713
◎文件格式 X264 + TrueHD
◎视频尺寸 1920 x 1080
◎文件大小 1CD 10.9 GiB
◎片  长 1 h 41 min
◎导  演 迈尔 扎奇 Meir Zarchi
◎主  演 卡米莉·基顿Richard Pace
      艾伦·塔波尔Eron Tabor
      安东尼·尼克尔斯Anthony Nichol
      



◎简  介 

  美女作家珍妮弗(Camille Keaton 饰)为了寻求灵感而远离喧嚣的尘世,来到宁静的郊外静心写作。她的美貌以及火辣打扮勾起了当地几名青年的邪念,他们假意帮助羞涩内向的男孩马修(Richard Pace 饰)追求珍妮弗,实则伺机强暴了她。由于马修的软弱,饱受蹂躏的珍妮弗侥幸逃命。

  不久后,珍妮弗重返此地,马修他们起初惶恐万分,但转而发现珍妮弗已经变成开放大胆的豪放女,遂放心与之交往。然而,珍妮弗的复仇计划才刚刚开始……

  本片荣获1978年Sitges – Catalonian国际电影节最佳女主角奖(Camille Keaton)。
General

Unique ID                      : 172803316388455027864282677747218393410 (0x8200B5497654E03EA0CFEB0B083C2942)

Complete name                  : H:\电影1\zz\I.Spit.on.Your.Grave.1978.DC.Bluray.1080p.TrueHD.x264-Grym\I.Spit.on.Your.Grave.1978.DC.Bluray.1080p.TrueHD.x264-Grym_x264.mkv

Format                         : Matroska

Format version                 : Version 4 / Version 2

File size                      : 10.9 GiB

Duration                       : 1 h 41 min

Overall bit rate mode          : Variable

Overall bit rate               : 15.3 Mb/s

Movie name                     : KOOK

Encoded date                   : UTC 2018-08-23 13:01:31

Writing application            : mkvmerge v9.4.2 ('So High') 64bit

Writing library                : libebml v1.3.4 + libmatroska v1.4.5

Attachments                    : 正式海报.jpg / STKAITI.TTF / fzlbfw.ttf / fzlbjw.ttf



Video

ID                             : 1

Format                         : AVC

Format/Info                    : Advanced Video Codec

Format profile                 : High@L4

Format settings, CABAC         : Yes

Format settings, ReFrames      : 4 frames

Codec ID                       : V_MPEG4/ISO/AVC

Duration                       : 1 h 41 min

Bit rate                       : 12.0 Mb/s

Width                          : 1 920 pixels

Height                         : 1 080 pixels

Display aspect ratio           : 16:9

Frame rate mode                : Variable

Frame rate                     : 23.976 FPS

Color space                    : YUV

Chroma subsampling             : 4:2:0

Bit depth                      : 8 bits

Scan type                      : Progressive

Bits/(Pixel*Frame)             : 0.241

Stream size                    : 8.49 GiB (78%)

Writing library                : x264 core 148 r2721+46 0c4b09a xiaowan [8-bit@all X86_64]

Encoding settings              : cabac=1 / ref=4 / deblock=1:1:1 / analyse=0x3:0x133 / me=umh / subme=10 / psy=1 / fade_compensate=0.00 / psy_rd=0.30:0.00 / mixed_ref=1 / me_range=24 / chroma_me=1 / trellis=2 / 8x8dct=1 / cqm=0 / deadzone=21,11 / fast_pskip=1 / chroma_qp_offset=-2 / threads=12 / lookahead_threads=1 / sliced_threads=0 / nr=0 / decimate=1 / interlaced=0 / bluray_compat=0 / constrained_intra=0 / fgo=0 / bframes=3 / b_pyramid=2 / b_adapt=2 / b_bias=0 / direct=3 / weightb=1 / open_gop=0 / weightp=2 / keyint=240 / keyint_min=1 / scenecut=60 / intra_refresh=0 / rc_lookahead=60 / rc=2pass / mbtree=1 / bitrate=12000 / ratetol=1.0 / qcomp=0.50 / qpmin=0:0:0 / qpmax=69:69:69 / qpstep=4 / cplxblur=20.0 / qblur=0.5 / ip_ratio=1.40 / aq=2:0.80 / aq-sensitivity=10.00 / aq-factor=1.00:1.00:1.00 / aq2=0 / aq3=0

Default                        : Yes

Forced                         : No

Color range                    : Limited

Matrix coefficients            : BT.709



Audio

ID                             : 2

Format                         : TrueHD

Codec ID                       : A_TRUEHD

Duration                       : 1 h 41 min

Bit rate mode                  : Variable

Bit rate                       : 3 246 kb/s

Maximum bit rate               : 3 840 kb/s

Channel(s)                     : 6 channels

Channel positions              : Front: L C R, Side: L R, LFE

Sampling rate                  : 48.0 kHz

Frame rate                     : 1 200.000 FPS (40 spf)

Compression mode               : Lossless

Stream size                    : 2.30 GiB (21%)

Language                       : English

Default                        : Yes

Forced                         : No



Text #1

ID                             : 3

Format                         : ASS

Codec ID                       : S_TEXT/ASS

Codec ID/Info                  : Advanced Sub Station Alpha

Duration                       : 1 h 40 min

Bit rate                       : 122 b/s

Count of elements              : 700

Compression mode               : Lossless

Stream size                    : 89.8 KiB (0%)

Title                          : 中英字幕

Language                       : Chinese

Default                        : Yes

Forced                         : No



Text #2

ID                             : 4

Format                         : ASS

Codec ID                       : S_TEXT/ASS

Codec ID/Info                  : Advanced Sub Station Alpha

Duration                       : 1 h 40 min

Bit rate                       : 50 b/s

Count of elements              : 700

Compression mode               : Lossless

Stream size                    : 37.4 KiB (0%)

Title                          : 简体字幕

Language                       : Chinese

Default                        : No

Forced                         : No



Text #3

ID                             : 5

Format                         : ASS

Codec ID                       : S_TEXT/ASS

Codec ID/Info                  : Advanced Sub Station Alpha

Duration                       : 1 h 40 min

Bit rate                       : 50 b/s

Count of elements              : 700

Compression mode               : Lossless

Stream size                    : 37.4 KiB (0%)

Title                          : 繁体字幕

Language                       : Chinese

Default                        : No

Forced                         : No



Text #4

ID                             : 6

Format                         : ASS

Codec ID                       : S_TEXT/ASS

Codec ID/Info                  : Advanced Sub Station Alpha

Duration                       : 1 h 40 min

Bit rate                       : 87 b/s

Count of elements              : 700

Compression mode               : Lossless

Stream size                    : 63.8 KiB (0%)

Title                          : 英文字幕

Language                       : English

Default                        : No

Forced                         : No



Menu

00:00:00.000                   : en:Main Titles

00:03:01.764                   : en:Writer's Retreat

00:10:42.183                   : en:"A Special Broad"

00:17:03.689                   : en:Tranquility Shattered

00:23:17.562                   : en:Violated

00:28:24.244                   : en:Assaulted

00:39:02.048                   : en:Defiled

00:52:33.567                   : en:"It's Been Two Weeks, Man!"

01:03:28.763                   : en:A Summer To Remember

01:17:56.380                   : en:A Hot Bath

01:30:55.533                   : en:Day Of The Woman

01:39:57.282                   : en:End Credits

分享到: 新浪微博新浪微博 QQ空间QQ空间 腾讯微博腾讯微博 腾讯朋友腾讯朋友

多谢超版分享

TOP

多谢超版分享

TOP

感谢版主分享
花落滿懷  暗香盈袖  淡淡歡喜淡淡愁

TOP

好老的片子啊

TOP

返回列表