返回列表 发帖

[1080P] 精灵旅社3:疯狂假期/尖叫旅社3:怪兽假期(台)Hotel.Transylvania.3.Summer.Vacation.2018.1080p.BluRay.x264.DTS-HD.MA.5.1-FGT



◎译  名 精灵旅社3:疯狂假期/鬼灵精怪大酒店3:怪兽旅行团(港)/尖叫旅社3:怪兽假期(台)
◎片  名 Hotel Transylvania 3: Summer Vacation
◎年  代 2018
◎国  家 美国
◎类  别 动画/家庭/喜剧
◎语  言 英语
◎字  幕 英文...
◎IMDb评分 6.3 from 15,176 users
◎IMDB链接 https://www.imdb.com/title/tt5220122/
◎文件格式 X264 + DTS
◎视频尺寸 1920  x 1040
◎文件大小 6.04 GiB
◎片  长 1 h 37 min
◎导  演 格恩迪·塔塔科夫斯基 Genndy Tartakovsky
◎主  演 亚当·桑德勒 Adam Sandler
       凯瑟琳·哈恩 Kathryn Hahn
       赛琳娜·戈麦斯 Selena Gomez
       阿什·布林克夫 Asher Blinkoff
       梅尔·布鲁克斯 Mel Brooks


◎简  介 

  德古拉的女儿梅菲丝安排了一场家庭旅行,平时服务客户的他决定好好放松一下,同时也给德古拉一个惊喜。辛苦工作了几百年的德古拉这次终于走出旅社踏上邮轮,开启一场祖孙四代同游的夏日疯狂假期,这对于德古拉来说绝对是历史性的跨越。但游轮上德古拉遇见船长艾丽卡并且一见倾心,反而梅菲丝变得像过渡保护孩子的大家长一般想尽办法让父亲和艾丽卡保持距离。但是他们不知道这场看似美好的爱情其实是德古拉和其他精灵的死对头范海辛布下的陷阱。
Video
ID : 1
Format : AVC
Format/Info : Advanced Video Codec
Format profile : High@L4.1
Format settings : CABAC / 4 Ref Frames
Format settings, CABAC : Yes
Format settings, ReFrames : 4 frames
Codec ID : V_MPEG4/ISO/AVC
Duration : 1 h 37 min
Bit rate : 6 519 kb/s
Width : 1 920 pixels
Height : 1 040 pixels
Display aspect ratio : 1.85:1
Frame rate mode : Constant
Frame rate : 23.976 (24000/1001) FPS
Color space : YUV
Chroma subsampling : 4:2:0
Bit depth : 8 bits
Scan type : Progressive
Bits/(Pixel*Frame) : 0.136
Stream size : 4.43 GiB (73%)
Title : Hotel.Transylvania.3.Summer.Vacation.2018.1080p.BluRay.x264.DTS-HD.MA.5.1-FGT
Writing library : x264 core 155 r2901 7d0ff22
Encoding settings : cabac=1 / ref=4 / deblock=1:0:0 / analyse=0x3:0x113 / me=umh / subme=8 / psy=1 / psy_rd=1.00:0.00 / mixed_ref=1 / me_range=16 / chroma_me=1 / trellis=1 / 8x8dct=1 / cqm=0 / deadzone=21,11 / fast_pskip=1 / chroma_qp_offset=-2 / threads=24 / lookahead_threads=4 / sliced_threads=0 / nr=0 / decimate=1 / interlaced=0 / bluray_compat=0 / constrained_intra=0 / bframes=3 / b_pyramid=2 / b_adapt=1 / b_bias=0 / direct=3 / weightb=1 / open_gop=0 / weightp=2 / keyint=240 / keyint_min=24 / scenecut=40 / intra_refresh=0 / rc_lookahead=50 / rc=2pass / mbtree=1 / bitrate=6519 / ratetol=1.0 / qcomp=0.60 / qpmin=0 / qpmax=69 / qpstep=4 / cplxblur=20.0 / qblur=0.5 / ip_ratio=1.40 / aq=1:1.00
Language : English
Default : Yes
Forced : No

Audio
ID : 2
Format : DTS
Format/Info : Digital Theater Systems
Format profile : MA / Core
Codec ID : A_DTS
Duration : 1 h 37 min
Bit rate mode : Variable / Constant
Bit rate : 2 278 kb/s / 1 509 kb/s
Channel(s) : 6 channels
Channel positions : Front: L C R, Side: L R, LFE
Sampling rate : 48.0 kHz
Frame rate : 93.750 FPS (512 SPF)
Bit depth : 16 bits
Compression mode : Lossless / Lossy
Stream size : 1.55 GiB (26%)
Title : Hotel.Transylvania.3.Summer.Vacation.2018.1080p.BluRay.x264.DTS-HD.MA.5.1-FGT
Language : English
Default : Yes
Forced : No

Text #1
ID : 3
Format : UTF-8
Codec ID : S_TEXT/UTF8
Codec ID/Info : UTF-8 Plain Text
Duration : 1 h 30 min
Bit rate : 52 b/s
Count of elements : 1295
Stream size : 35.1 KiB (0%)
Title : English-SRT
Language : English
Default : Yes
Forced : No

Text #2
ID : 4
Format : UTF-8
Codec ID : S_TEXT/UTF8
Codec ID/Info : UTF-8 Plain Text
Duration : 1 h 30 min
Bit rate : 65 b/s
Count of elements : 1629
Stream size : 43.8 KiB (0%)
Title : English-SDH-SRT
Language : English
Default : No
Forced : No

Text #3
ID : 5
Format : PGS
Muxing mode : zlib
Codec ID : S_HDMV/PGS
Codec ID/Info : Picture based subtitle format used on BDs/HD-DVDs
Duration : 1 h 26 min
Bit rate : 36.5 kb/s
Count of elements : 2198
Stream size : 22.6 MiB (0%)
Title : English-PGS
Language : English
Default : No
Forced : No

Text #4
ID : 6
Format : PGS
Muxing mode : zlib
Codec ID : S_HDMV/PGS
Codec ID/Info : Picture based subtitle format used on BDs/HD-DVDs
Duration : 1 h 30 min
Bit rate : 53.3 kb/s
Count of elements : 3259
Stream size : 34.6 MiB (1%)
Title : English-SDH-PGS
Language : English
Default : No
Forced : No

Text #5
ID : 7
Format : PGS
Muxing mode : zlib
Codec ID : S_HDMV/PGS
Codec ID/Info : Picture based subtitle format used on BDs/HD-DVDs
Duration : 1 h 36 min
Bit rate : 31.4 kb/s
Count of elements : 2090
Stream size : 21.8 MiB (0%)
Title : French-PGS
Language : French
Default : No
Forced : No

Text #6
ID : 8
Format : PGS
Muxing mode : zlib
Codec ID : S_HDMV/PGS
Codec ID/Info : Picture based subtitle format used on BDs/HD-DVDs
Duration : 1 h 36 min
Bit rate : 32.2 kb/s
Count of elements : 2006
Stream size : 22.2 MiB (0%)
Title : Spanish-PGS
Language : Spanish
Default : No
Forced : No

Text #7
ID : 9
Format : PGS
Muxing mode : zlib
Codec ID : S_HDMV/PGS
Codec ID/Info : Picture based subtitle format used on BDs/HD-DVDs
Duration : 1 h 36 min
Bit rate : 84 b/s
Count of elements : 8
Stream size : 60.0 KiB (0%)
Title : French-PGS
Language : French
Default : No
Forced : No

Menu
00:00:00.000 : en:00:00:00.000
00:04:28.935 : en:00:04:28.935
00:09:34.824 : en:00:09:34.824
00:16:02.044 : en:00:16:02.044
00:20:03.077 : en:00:20:03.077
00:24:34.932 : en:00:24:34.932
00:31:12.537 : en:00:31:12.537
00:36:49.207 : en:00:36:49.207
00:44:04.725 : en:00:44:04.725
00:49:57.703 : en:00:49:57.703
00:54:49.745 : en:00:54:49.745
01:00:34.881 : en:01:00:34.881
01:06:12.010 : en:01:06:12.010
01:10:32.270 : en:01:10:32.270
01:13:46.380 : en:01:13:46.380
01:24:56.550 : en:01:24:56.550






分享到: 新浪微博新浪微博 QQ空间QQ空间 腾讯微博腾讯微博 腾讯朋友腾讯朋友

多谢超版分享

TOP

多谢超版分享

TOP

感谢版主分享
花落滿懷  暗香盈袖  淡淡歡喜淡淡愁

TOP

返回列表