返回列表 发帖

[1080P] 吉屋/吉屋出租 Buyer.Beware.2018.CHINESE.1080p.BluRay.x264-WiKi




◎译  名 吉屋/吉屋出租
◎片  名 Ji wu/Buyer Beware
◎年  代 2018
◎国  家 中国香港
◎类  别 恐怖
◎语  言 普通话/粤语
◎IMDb评分 5.6/10 from 8 users
◎IMDB链接 https://www.imdb.com/title/tt8541440/
◎片  长 1 h 36 min
◎导  演 蒋开诗 Jeffrey Chiang
◎主  演 陈家乐 Carlos Chan
       汤加文 Carmen Tong
       张国强 Kwok Keung Cheung
       龚慈恩 Mimi Kung
       麦子乐 Bryant Ji-Lok Mak


◎简  介


  土地問題,用吉屋去解決。 Charlie(陳家樂飾) 是一位有志的年輕地產經紀,機緣巧合下離職加入一家由Gordon(張國強飾)和Lucy(龔慈恩飾)經營的房地產公司。 隨後,Charlie 發現原來這家新公司之所以能成功,全靠他們將凶宅以低價購入,再以高價出售。 儘管如此,Charlie 還是抵擋不了豐厚佣金的誘惑,決定埋沒自己的良心,將這些凶宅賣給顧客,甚至出售給前女友Shermaine(湯加文飾)及好兄弟Earnest(麥子樂飾),任由他們被鬼魂纏身.....
Video
ID : 1
Format : AVC
Format/Info : Advanced Video Codec
Format profile : High@L4.1
Format settings : CABAC / 5 Ref Frames
Format settings, CABAC : Yes
Format settings, ReFrames : 5 frames
Codec ID : V_MPEG4/ISO/AVC
Duration : 1 h 36 min
Bit rate : 15.0 Mb/s
Width : 1 920 pixels
Height : 804 pixels
Display aspect ratio : 2.40:1
Frame rate mode : Constant
Frame rate : 24.000 FPS
Color space : YUV
Chroma subsampling : 4:2:0
Bit depth : 8 bits
Scan type : Progressive
Bits/(Pixel*Frame) : 0.405
Stream size : 10.1 GiB (96%)
Writing library : x264 core 155 r2867+82 a249126 t_mod_Custom_2 [8-bit@all X86_64]
Encoding settings : cabac=1 / ref=5 / deblock=1:-3:-3 / analyse=0x3:0x133 / me=umh / subme=10 / psy=1 / fade_compensate=0.00 / psy_rd=1.00:0.00 / mixed_ref=1 / me_range=32 / chroma_me=1 / trellis=2 / 8x8dct=1 / cqm=0 / deadzone=21,11 / fast_pskip=0 / chroma_qp_offset=-2 / threads=24 / lookahead_threads=4 / sliced_threads=0 / nr=0 / decimate=0 / interlaced=0 / bluray_compat=0 / constrained_intra=0 / fgo=0 / bframes=9 / b_pyramid=2 / b_adapt=2 / b_bias=0 / direct=3 / weightb=1 / open_gop=0 / weightp=2 / keyint=250 / keyint_min=24 / scenecut=40 / intra_refresh=0 / rc_lookahead=60 / rc=2pass / mbtree=0 / bitrate=15000 / ratetol=1.0 / qcomp=0.60 / qpmin=0:0:0 / qpmax=69:69:69 / qpstep=4 / cplxblur=20.0 / qblur=0.5 / vbv_maxrate=62500 / vbv_bufsize=78125 / nal_hrd=none / filler=0 / ip_ratio=1.40 / pb_ratio=1.15 / aq=1:0.85 / aq-sensitivity=10.00 / aq-factor=1.00:1.00:1.00 / aq2=0 / aq3=0 / zones=48,320,crf=14
Default : Yes
Forced : No

Audio
ID : 2
Format : AC-3
Format/Info : Audio Coding 3
Commercial name : Dolby Digital
Codec ID : A_AC3
Duration : 1 h 36 min
Bit rate mode : Constant
Bit rate : 640 kb/s
Channel(s) : 6 channels
Channel layout : L R C LFE Ls Rs
Sampling rate : 48.0 kHz
Frame rate : 31.250 FPS (1536 SPF)
Bit depth : 16 bits
Compression mode : Lossy
Stream size : 441 MiB (4%)
Title : Cantonese
Language : Chinese
Service kind : Complete Main
Default : Yes
Forced : No

Text #1
ID : 3
Format : UTF-8
Codec ID : S_TEXT/UTF8
Codec ID/Info : UTF-8 Plain Text
Duration : 1 h 30 min
Bit rate : 34 b/s
Count of elements : 880
Stream size : 22.8 KiB (0%)
Title : English
Language : English
Default : Yes
Forced : Yes

Text #2
ID : 4
Format : UTF-8
Codec ID : S_TEXT/UTF8
Codec ID/Info : UTF-8 Plain Text
Duration : 1 h 29 min
Bit rate : 31 b/s
Count of elements : 874
Stream size : 20.5 KiB (0%)
Title : Chinese
Language : Chinese
Default : No
Forced : No

Text #3
ID : 5
Format : UTF-8
Codec ID : S_TEXT/UTF8
Codec ID/Info : UTF-8 Plain Text
Duration : 1 h 29 min
Bit rate : 31 b/s
Count of elements : 874
Stream size : 20.5 KiB (0%)
Title : Chinese
Language : Chinese
Default : No
Forced : No

Menu
00:00:00.000 : en:00:00:00.000
00:07:50.333 : en:00:07:50.333
00:16:17.958 : en:00:16:17.958
00:23:50.000 : en:00:23:50.000
00:32:54.167 : en:00:32:54.167
00:40:51.833 : en:00:40:51.833
00:48:19.000 : en:00:48:19.000
00:55:40.542 : en:00:55:40.542
01:04:07.792 : en:01:04:07.792
01:12:49.833 : en:01:12:49.833
01:19:37.375 : en:01:19:37.375
01:27:50.875 : en:01:27:50.875






Buyer.Beware.2018.CHINESE.1080p.BluRay.x264-WiKi.torrent (53.17 KB)

分享到: 新浪微博新浪微博 QQ空间QQ空间 腾讯微博腾讯微博 腾讯朋友腾讯朋友

感谢版主分享
花落滿懷  暗香盈袖  淡淡歡喜淡淡愁

TOP

多谢超版分享

TOP

感谢版主分享

TOP

返回列表