返回列表 发帖

[720P] 尸囚狱:前篇/尸囚狱/尸囚狱剧场版/尸囚狱:八坂村之花(台) Corpse.Prison.Part.One.2017.JAPANESE.720p.BluRay.x264-WiKi



◎译  名  尸囚狱:前篇/尸囚狱/尸囚狱剧场版/尸囚狱:八坂村之花(台)
◎片  名 Shish?goku: Ki no hen/Corpse Prison: Part 1
◎年  代 2017
◎国  家 日本
◎类  别 惊悚/情色
◎语  言 日语
◎字  幕 简体中文/繁体中文
◎IMDb评分 6.2/10 from 20 users
◎IMDB链接 https://www.imdb.com/title/tt6858002
◎片  长 113分钟
◎导  演 城定秀夫
◎主  演 片山萌美
      Anna Tachibana
      Shin'ichi Wag?
      Nagomi
      Reimi Fujishiro
      Ren Fukusaki
      Valérie Lamond
      Jean Grosset
      Guillaume Drau
      Martin Hauser
     
     

◎简  介

  八坂村是位於縣界附近深山中,人口只有43人的小村子。一輛廂型車行駛在通往這個小村落的唯一道路上,車上有來這個村子做研究的比良坂大學教授葦原和他的助手香坂,以及美琴等四名女大學生。當他們抵達以後,美琴一行人受到村長天野以及男村民的熱烈歡迎,可是村子卻瀰漫著一股異樣的氣息。沒錯,因為這個村子裡面完全不見女人的蹤影。而葦原來這裡的目的也是為了調查這個與世隔絕的村子裡所發生的這種詭異現象,為了得到協助,他同意村長的條件,要帶年輕女子一起來…

Video
ID : 1
Format : AVC
Format/Info : Advanced Video Codec
Format profile : High@L4.1
Format settings : CABAC / 9 Ref Frames
Format settings, CABAC : Yes
Format settings, ReFrames : 9 frames
Codec ID : V_MPEG4/ISO/AVC
Duration : 1 h 15 min
Bit rate : 6 800 kb/s
Width : 1 280 pixels
Height : 720 pixels
Display aspect ratio : 16:9
Frame rate mode : Constant
Frame rate : 29.970 (30000/1001) FPS
Color space : YUV
Chroma subsampling : 4:2:0
Bit depth : 8 bits
Scan type : Progressive
Bits/(Pixel*Frame) : 0.246
Stream size : 3.59 GiB (91%)
Title : x264_L4.1 @ 6,800 Kbps (pass2)
Writing library : x264 core 129 r2245+704+36 8e61944 tMod+MixAQ [8-bit@4:2:0 X86_64]
Encoding settings : cabac=1 / ref=9 / deblock=1:-3:-3 / analyse=0x3:0x133 / me=umh / subme=11 / psy=1 / fade_compensate=0.00 / psy_rd=1.05:0.15 / mixed_ref=1 / me_range=32 / chroma_me=1 / trellis=2 / 8x8dct=1 / cqm=0 / deadzone=21,11 / fast_pskip=0 / chroma_qp_offset=-3 / threads=12 / lookahead_threads=2 / sliced_threads=0 / nr=0 / decimate=1 / interlaced=0 / bluray_compat=0 / constrained_intra=0 / fgo=0 / bframes=10 / b_pyramid=2 / b_adapt=2 / b_bias=0 / direct=3 / weightb=1 / open_gop=0 / weightp=2 / keyint=250 / keyint_min=25 / scenecut=40 / intra_refresh=0 / rc=2pass / mbtree=0 / bitrate=6800 / ratetol=1.0 / qcomp=0.70 / qpmin=0 / qpmax=69 / qpstep=4 / cplxblur=20.0 / qblur=0.5 / ip_ratio=1.20 / pb_ratio=1.15 / aq=1 / aq-strength=0.70 / aq-sensitivity=10.00 / aq-ifactor=1.00 / aq-pfactor=1.00 / aq-bfactor=1.00 / aq2=0
Language : Japanese
Default : Yes
Forced : No

Audio
ID : 2
Format : AC-3
Format/Info : Audio Coding 3
Commercial name : Dolby Digital
Codec ID : A_AC3
Duration : 1 h 14 min
Bit rate mode : Constant
Bit rate : 640 kb/s
Channel(s) : 2 channels
Channel layout : L R
Sampling rate : 48.0 kHz
Frame rate : 31.250 FPS (1536 SPF)
Bit depth : 16 bits
Compression mode : Lossy
Stream size : 342 MiB (9%)
Title : Japanese DD 2.0 @ 640 Kbps
Language : Japanese
Service kind : Complete Main
Default : Yes
Forced : No

Text #1
ID : 3
Format : UTF-8
Codec ID : S_TEXT/UTF8
Codec ID/Info : UTF-8 Plain Text
Duration : 1 h 9 min
Bit rate : 31 b/s
Count of elements : 686
Stream size : 16.3 KiB (0%)
Title : Simplified Chinese (TTG-R3)
Language : Chinese
Default : Yes
Forced : No

Text #2
ID : 4
Format : UTF-8
Codec ID : S_TEXT/UTF8
Codec ID/Info : UTF-8 Plain Text
Duration : 1 h 9 min
Bit rate : 31 b/s
Count of elements : 686
Stream size : 16.3 KiB (0%)
Title : Traditional Chinese (TTG-R3)
Language : Chinese
Default : No
Forced : No

Menu
00:00:00.000 : :00:00:00.000
00:01:02.262 : :00:01:02.262
00:02:33.954 : :00:02:33.954
00:05:22.689 : :00:05:22.689
00:07:08.161 : :00:07:08.161
00:09:53.493 : :00:09:53.493
00:11:56.649 : :00:11:56.649
00:12:57.443 : :00:12:57.443
00:15:59.659 : :00:15:59.659
00:19:40.813 : :00:19:40.813
00:21:17.676 : :00:21:17.676
00:23:20.099 : :00:23:20.099
00:29:36.842 : :00:29:36.842
00:31:01.393 : :00:31:01.393
00:33:59.137 : :00:33:59.137
00:34:58.063 : :00:34:58.063
00:36:31.990 : :00:36:31.990
00:39:30.835 : :00:39:30.835
00:40:45.677 : :00:40:45.677
00:45:26.991 : :00:45:26.991
00:45:47.311 : :00:45:47.311
00:50:46.610 : :00:50:46.610
00:53:45.556 : :00:53:45.556
00:56:04.061 : :00:56:04.061
00:56:48.972 : :00:56:48.972
00:57:24.608 : :00:57:24.608
01:00:13.143 : :01:00:13.143
01:01:25.582 : :01:01:25.582
01:07:01.784 : :01:07:01.784
01:10:08.037 : :01:10:08.037
01:12:18.568 : :01:12:18.568
01:14:42.011 : :01:14:42.011






Corpse.Prison.Part.One.2017.JAPANESE.720p.BluRay.x264-WiKi.torrent (78.98 KB)

分享到: 新浪微博新浪微博 QQ空间QQ空间 腾讯微博腾讯微博 腾讯朋友腾讯朋友

多谢超版分享

TOP

多谢超版分享

TOP

感觉好看啊。。

TOP

多谢超版分享

TOP

返回列表