返回列表 发帖

[高清MKV电影] 痞子英雄之全面开战 Black.White.Episode.2012.BluRay.720p.x264.AC3-WOFEI 国语中字

http://bbs.hd62.com/thread-606636-1-1.html





◎译  名  痞子英雄之全面开战/痞子英雄电影版/痞子英雄首部曲:全面开战/痞子英雄1:全面开战
◎片  名 Black & White Episode I
◎年  代 2012
◎国  家 中国/中国台湾   
◎类  别 剧情/动作/犯罪
◎语  言 国语
◎字  幕 中文
◎IMDB评分  N/A
◎下载链接  http://bbs.hd62.com/forum-138-1.html
◎文件格式 x264 + AC3
◎视频尺寸 1280 x 720
◎文件大小 1CD 2.73GB
◎片  长 155 Mins
◎导  演 蔡岳勋 Yueh-Hsun Tsai
◎主  演 赵又廷 Mark Chao  ….吴英雄
      黄渤 Bo Huang  ….徐达夫
      关颖 Terri Kwan  ….杜小晴
      杨颖 Angela Baby  ….范宁
      杜德伟 Alex To  ….欧文斯
      阿Ken Ken Lin  ….阿同
      藤冈靛 Dean  ….李哲永
      高捷 Jack Kao  ….源哥
      纳豆 Yuzhi Lin  ….大保


◎简  介 
  被疑有“暴力倾向”的警察吴英雄(赵又廷 饰),第一次办案就上演搏命飞车追逐大戏,撞毁了几条街道,被勒令停止办案的他,仍在追踪一出离奇案件。而在海港城另一头,自称“三联会三级干部”的黑道上班族徐达夫(黄渤 饰),为了女人挪用帮派黑金走私钻石,交易时突遭神秘队伍乱枪扫射,混 乱之中来到现场的吴英雄,本以为只是一场黑市交易,但在逮住徐达夫之后,一场大灾难开始了……
  在特警部队+外国杀手+神秘美女(angelbaby 饰)的连环夺命,直升机+重机枪+火箭弹的全城追杀下,一个正义感过头的警察,和一个喜感十足的黑帮,不得不组成另类“双雄”,除了逃亡,他们还得面对一场浩劫,因为那口装着钻石的箱子没那么简单,36个小时后,海港城就将毁灭,而真正的敌人,似乎永远都比他们快一步……

E:\rmvb资源\[高清MKV收藏www.hdbird.com]\老鸟家园[bbs.hd62.com].痞子英雄之全面开战.720p.中英字幕\痞子英雄之全面开战 Black.White.Episode.1.The.Dawn.of.Assault.2012.BluRay.720p.x264.AC3-WOFEI.mkv
   General
      Unique ID : 183614799842630206517390322444367804405 (0x8A22EC93740C6C7A98F937E32C1BB7F5)
      Complete name : E:\rmvb资源\[高清MKV收藏www.hdbird.com]\老鸟家园[bbs.hd62.com].痞子英雄之全面开战.720p.中英字幕\痞子英雄之全面开战 Black.White.Episode.1.The.Dawn.of.Assault.2012.BluRay.720p.x264.AC3-WOFEI.mkv
      Format : Matroska
      Format version : Version 2
      File size : 2.73 GiB
      Duration : 2h 37mn
      Overall bit rate : 2 483 Kbps
      Encoded date : UTC 2012-11-11 16:31:13
      Writing application : mkvmerge v3.4.0 ('Rapunzel') 编译于 May 15 2010 09:38:20
      Writing library : libebml v0.8.0 + libmatroska v0.9.0
   Video #1
      ID : 1
      Format : AVC
      Format/Info : Advanced Video Codec
      Format profile : High@L4.1
      Format settings, CABAC : Yes
      Format settings, ReFrames : 5 frames
      Codec ID : V_MPEG4/ISO/AVC
      Duration : 2h 37mn
      Bit rate : 2 033 Kbps
      Width : 1 280 pixels
      Height : 720 pixels
      Display aspect ratio : 16:9
      Frame rate : 24.000 fps
      Color space : YUV
      Chroma subsampling : 4:2:0
      Bit depth : 8 bits
      Scan type : Progressive
      Bits/(Pixel*Frame) : 0.092
      Stream size : 2.19 GiB (80%)
      Writing library : x264 core 116 r2074 2641b9e
      Encoding settings : cabac=1 / ref=5 / deblock=1:-1:-1 / analyse=0x3:0x113 / me=umh / subme=6 / psy=1 / psy_rd=1.00:0.00 / mixed_ref=1 / me_range=16 / chroma_me=1 / trellis=2 / 8x8dct=1 / cqm=0 / deadzone=21,11 / fast_pskip=1 / chroma_qp_offset=-2 / threads=12 / sliced_threads=0 / nr=0 / decimate=1 / interlaced=0 / bluray_compat=0 / constrained_intra=0 / bframes=3 / b_pyramid=0 / b_adapt=1 / b_bias=0 / direct=3 / weightb=1 / open_gop=0 / weightp=2 / keyint=250 / keyint_min=23 / scenecut=40 / intra_refresh=0 / rc_lookahead=40 / rc=2pass / mbtree=1 / bitrate=2033 / ratetol=1.0 / qcomp=0.60 / qpmin=10 / qpmax=51 / qpstep=4 / cplxblur=20.0 / qblur=0.5 / vbv_maxrate=50000 / vbv_bufsize=50000 / nal_hrd=none / ip_ratio=1.40 / aq=1:1.00
   Audio #2
      ID : 2
      Format : AC-3
      Format/Info : Audio Coding 3
      Mode extension : CM (complete main)
      Codec ID : A_AC3
      Duration : 2h 37mn
      Bit rate mode : Constant
      Bit rate : 448 Kbps
      Channel(s) : 6 channels
      Channel positions : Front: L C R, Side: L R, LFE
      Sampling rate : 48.0 KHz
      Bit depth : 16 bits
      Compression mode : Lossy
      Stream size : 505 MiB (18%)
      Title : 国语
   Text #3
      ID : 3
      Format : UTF-8
      Codec ID : S_TEXT/UTF8
      Codec ID/Info : UTF-8 Plain Text




分享到: 新浪微博新浪微博 QQ空间QQ空间 腾讯微博腾讯微博 腾讯朋友腾讯朋友

这片子就不看的了

TOP

这片子就不看的了

TOP

支持发帖!

TOP

看起来不错哦,顶一下

TOP

返回列表