返回列表 发帖

[高清MKV电影] 朱莉娅的眼睛 Julia.s.Eyes.2010.BluRay.720p.x264.AC3-WOFEI 中英字幕

http://bbs.hd62.com/thread-606931-1-1.html





◎译  名 朱莉娅的眼睛
◎片  名 Julia's Eyes/Los ojos de Julia
◎年  代 2010
◎国  家 西班牙
◎类  别 恐怖/惊悚
◎语  言 西班牙语
◎字  幕 中英字幕/中文字幕/英中字幕/英文字幕
◎IMDB评分 6.6/10 (1314 votes)
◎IMDB链接 http://www.imdb.com/title/tt1512685
◎文件格式 X264 + AC3
◎视频尺寸 1280 x 720
◎文件大小 1CD
◎片  长 117 mins
◎导  演 古勒姆·莫拉雷斯 Guillem Morales
◎主  演 贝伦·鲁艾达 Belén Rueda  ....Julia
      路易斯·霍马 Lluís Homar  ....Isaac
      Clara Segura
      Julia Gutiérrez Caba
      Francesc Orella
      Dani Grao
      Joan Dalmau
      Boris Ruiz
      Andrea Hermosa  ....Lía
      帕布罗·德奎 Pablo Derqui  ....Iván
      Mia Esteve
      Jordi Llordella

◎简  介 

  朱莉娅是一个正在遭受视力退化症折磨的女人,她发现自己眼盲的双胞胎姐妹莎拉吊死在自家的地下室中。朱莉娅并不认为这是一起自杀事件,她决定独自展开调查。她深入黑暗的世界,发现或许有一位神秘的人物隐藏在背后。但正当此事有了很大进展之时,她的视力的退化却几乎让她全盲,而不能解释的死亡事件和神秘的失踪频繁出现在他生活中……

幕后制作

  《朱莉娅的眼睛》由著名导演吉尔莫·德尔·托罗监制,西班牙导演古勒姆·莫拉雷斯执导,摄影师奥斯卡·弗拉曾为吉尔莫·德尔·托罗的《鬼童院》掌镜,让本片从色彩和质地上都很贴近前者。而本片的女主角贝伦·鲁艾达也曾主演德尔·托罗监制的前作《灵异孤儿院》。影片先是通过Sitges电影节首度公开,抱着很大期望的评论界反响相当消极,但之后在西班牙上映时得到了普通观众的喜爱。影片充满了张力,高潮不断,直到巅峰断裂,在意料之外突然结束,喜欢恐怖片的观众不会失望。上映七周,该片依然顽强的占据着票房前十的好成绩,成为本土唯一一部超越百万观众的电影。它在年度票房榜上则位列18,依然无法和强悍的好莱坞对抗。

I:\rmvb资源\[高清MKV收藏www.hdbird.com]\老鸟家园[bbs.hd62.com].朱莉娅的眼睛.720p.中英字幕\朱莉娅的眼睛 Julia.s.Eyes.2010.BluRay.720p.x264.AC3-WOFEI.mkv
   General
      Complete name : I:\rmvb资源\[高清MKV收藏www.hdbird.com]\老鸟家园[bbs.hd62.com].朱莉娅的眼睛.720p.中英字幕\朱莉娅的眼睛 Julia.s.Eyes.2010.BluRay.720p.x264.AC3-WOFEI.mkv
      Format : Matroska
      File size : 2.19 GiB
      Duration : 1h 57mn
      Overall bit rate : 2 670 Kbps
      Encoded date : UTC 2011-07-13 12:33:25
      Writing application : mkvmerge v3.4.0 ('Rapunzel') 编译于 May 15 2010 09:38:20
      Writing library : libebml v0.8.0 + libmatroska v0.9.0
   Video #1
      ID : 1
      Format : AVC
      Format/Info : Advanced Video Codec
      Format profile : High@L4.1
      Format settings, CABAC : Yes
      Format settings, ReFrames : 4 frames
      Muxing mode : Container profile=Unknown@4.1
      Codec ID : V_MPEG4/ISO/AVC
      Duration : 1h 57mn
      Bit rate : 2 168 Kbps
      Nominal bit rate : 2 219 Kbps
      Width : 1 280 pixels
      Height : 720 pixels
      Display aspect ratio : 16:9
      Frame rate : 23.976 fps
      Resolution : 8 bits
      Colorimetry : 4:2:0
      Scan type : Progressive
      Bits/(Pixel*Frame) : 0.098
      Stream size : 1.77 GiB (81%)
      Writing library : x264 core 115 r1995 c1e60b9
      Encoding settings : cabac=1 / ref=3 / deblock=1:0:0 / analyse=0x3:0x113 / me=hex / subme=7 / psy=1 / psy_rd=1.00:0.00 / mixed_ref=1 / me_range=16 / chroma_me=1 / trellis=1 / 8x8dct=1 / cqm=0 / deadzone=21,11 / fast_pskip=1 / chroma_qp_offset=-2 / threads=6 / sliced_threads=0 / nr=0 / decimate=1 / interlaced=0 / bluray_compat=0 / constrained_intra=0 / bframes=3 / b_pyramid=2 / b_adapt=1 / b_bias=0 / direct=1 / weightb=1 / open_gop=0 / weightp=2 / keyint=250 / keyint_min=23 / scenecut=40 / intra_refresh=0 / rc_lookahead=40 / rc=2pass / mbtree=1 / bitrate=2219 / ratetol=1.0 / qcomp=0.60 / qpmin=0 / qpmax=69 / qpstep=4 / cplxblur=20.0 / qblur=0.5 / vbv_maxrate=50000 / vbv_bufsize=50000 / nal_hrd=none / ip_ratio=1.40 / aq=1:1.00
      Language : English
   Audio #2
      ID : 2
      Format : AC-3
      Format/Info : Audio Coding 3
      Codec ID : A_AC3
      Duration : 1h 57mn
      Bit rate mode : Constant
      Bit rate : 448 Kbps
      Channel(s) : 6 channels
      Channel positions : Front: L C R, Surround: L R, LFE
      Sampling rate : 48.0 KHz
      Stream size : 376 MiB (17%)
   Text #3
      ID : 3
      Format : SSA
      Codec ID : S_TEXT/SSA
      Codec ID/Info : Sub Station Alpha
      Title : 中英
   Text #4
      ID : 4
      Format : SSA
      Codec ID : S_TEXT/SSA
      Codec ID/Info : Sub Station Alpha
      Title : 英中
   Text #5
      ID : 5
      Format : UTF-8
      Codec ID : S_TEXT/UTF8
      Codec ID/Info : UTF-8 Plain Text
      Title : 中文
   Text #6
      ID : 6
      Format : UTF-8
      Codec ID : S_TEXT/UTF8
      Codec ID/Info : UTF-8 Plain Text
      Title : 英文




分享到: 新浪微博新浪微博 QQ空间QQ空间 腾讯微博腾讯微博 腾讯朋友腾讯朋友

多谢楼主分享

TOP

多谢楼主分享

TOP

多谢楼主分享

TOP

支持发帖!

TOP

谢谢

TOP

返回列表