返回列表 发帖

[高清MKV电影] 光环4:迈向黎明 Halo.4.Forward.Unto.Dawn.2012.BluRay.720p.x264.AC3 中英字幕

http://bbs.hd62.com/thread-607315-1-1.html






◎译  名 光环4/光环4:航向黎明号/光晕4/航向黎明号
◎片  名 Halo 4 Forward Unto Dawn
◎年  代 2012
◎国  家 美国
◎类  别 动作/科幻
◎语  言 英语
◎字  幕 英文
◎IMDB评分 8.6/10 from 2,871 users
◎IMDB链接 http://www.imdb.com/title/tt2262308
◎文件格式 X264 + DTS
◎视频尺寸 1280 x 536
◎文件大小 1CD 4.36GB
◎片  长 91 Mins
◎导  演 斯特瓦特·亨德尔 Stewart Hendler
◎主  演 Robin August  ....Orlin
      Iain Belcher  ....Vickers
      Jenna Berman  ....Kelly-087
      Enisha Brewster  ....April Orenski
      Max Carver  ....Cadmon Lasky
      欧斯瑞克·周 Osric Chau  ....JJ Chen
      丹尼尔·库德摩尔 Daniel Cudmore  ....John-117 'Master Chief'
      Kat de Lieva  ....Dimah (as Katerina Katelieva)
      麦克·道帕德 Mike Dopud  ....General Black
      Neil Ellice  ....Marine
      Tony Giroux  ....Fred-104
      Tom Green  ....Thomas Lasky
      Masam Holden  ....Michael 'Sully' Sullivan
      Frank O'Connor  ....Janitor Beamish
      安娜·帕波维尔 Anna Popplewell  ....Chyler Silva
      帕特里克·萨邦圭 Patrick Sabongui  ....Marine
      Chris Shields  ....Dr. Hughes
      Jill Teed  ....Colonel Laskey
      阿耶莱特·祖里尔 Ayelet Zorer  ....Mehaffey
      
      

◎简  介 
       微软斥巨资为光晕打造的系列微电影《光晕4:航向黎明号》,新兵为了保卫家园,进入军营接受剃度,准备与最强战士士官长携手作战。本作出现的新角色将会在光环4的游戏中出现。本作还将以闪回方式重放星盟与人类遭遇之处的战争实况。

       《光环4:航向黎明号》是一部90分钟加长版的真人数字系列电影,讲述这场战争最初的起源,让玩家见证士官长是如何一步一步成长起来的。在第二次地球战役,航向黎明号是皇家海军舰队部署在非洲草原的三艘UNSC护卫舰之一。它对真相先知乘坐的先行者无畏舰发射MAC火炮,试图以火力阻止它开启方舟传送门。这次攻击失败了,并且似乎丝毫无损的无畏舰通过传送门逃向方舟。

E:\rmvb资源\[高清MKV收藏www.hdbird.com]\老鸟家园[bbs.hd62.com].光环4:迈向黎明.720p.中英字幕\光环4:迈向黎明 Halo.4.Forward.Unto.Dawn.2012.BluRay.720p.x264.AC3-WOFEI.mkv
   General
      Unique ID : 180610433914363582423730727433223147599 (0x87E04DE63D9F645BBF46A01E2DE2104F)
      Complete name : E:\rmvb资源\[高清MKV收藏www.hdbird.com]\老鸟家园[bbs.hd62.com].光环4:迈向黎明.720p.中英字幕\光环4:迈向黎明 Halo.4.Forward.Unto.Dawn.2012.BluRay.720p.x264.AC3-WOFEI.mkv
      Format : Matroska
      Format version : Version 2
      File size : 2.05 GiB
      Duration : 1h 31mn
      Overall bit rate : 3 212 Kbps
      Encoded date : UTC 2012-11-23 03:54:53
      Writing application : mkvmerge v3.4.0 ('Rapunzel') 编译于 May 15 2010 09:38:20
      Writing library : libebml v0.8.0 + libmatroska v0.9.0
   Video #1
      ID : 1
      Format : AVC
      Format/Info : Advanced Video Codec
      Format profile : High@L4.1
      Format settings, CABAC : Yes
      Format settings, ReFrames : 5 frames
      Codec ID : V_MPEG4/ISO/AVC
      Duration : 1h 31mn
      Bit rate : 2 762 Kbps
      Width : 1 280 pixels
      Height : 720 pixels
      Display aspect ratio : 16:9
      Frame rate : 23.976 fps
      Color space : YUV
      Chroma subsampling : 4:2:0
      Bit depth : 8 bits
      Scan type : Progressive
      Bits/(Pixel*Frame) : 0.125
      Stream size : 1.72 GiB (84%)
      Writing library : x264 core 116 r2074 2641b9e
      Encoding settings : cabac=1 / ref=5 / deblock=1:-1:-1 / analyse=0x3:0x113 / me=umh / subme=6 / psy=1 / psy_rd=1.00:0.00 / mixed_ref=1 / me_range=16 / chroma_me=1 / trellis=2 / 8x8dct=1 / cqm=0 / deadzone=21,11 / fast_pskip=1 / chroma_qp_offset=-2 / threads=12 / sliced_threads=0 / nr=0 / decimate=1 / interlaced=0 / bluray_compat=0 / constrained_intra=0 / bframes=3 / b_pyramid=0 / b_adapt=1 / b_bias=0 / direct=3 / weightb=1 / open_gop=0 / weightp=2 / keyint=250 / keyint_min=23 / scenecut=40 / intra_refresh=0 / rc_lookahead=40 / rc=2pass / mbtree=1 / bitrate=2762 / ratetol=1.0 / qcomp=0.60 / qpmin=10 / qpmax=51 / qpstep=4 / cplxblur=20.0 / qblur=0.5 / vbv_maxrate=50000 / vbv_bufsize=50000 / nal_hrd=none / ip_ratio=1.40 / aq=1:1.00
   Audio #2
      ID : 2
      Format : AC-3
      Format/Info : Audio Coding 3
      Mode extension : CM (complete main)
      Codec ID : A_AC3
      Duration : 1h 31mn
      Bit rate mode : Constant
      Bit rate : 448 Kbps
      Channel(s) : 6 channels
      Channel positions : Front: L C R, Side: L R, LFE
      Sampling rate : 48.0 KHz
      Bit depth : 16 bits
      Compression mode : Lossy
      Stream size : 293 MiB (14%)
   Text #3
      ID : 3
      Format : SSA
      Codec ID : S_TEXT/SSA
      Codec ID/Info : Sub Station Alpha
      Compression mode : Lossless
      Title : 中英
   Text #4
      ID : 4
      Format : SSA
      Codec ID : S_TEXT/SSA
      Codec ID/Info : Sub Station Alpha
      Compression mode : Lossless
      Title : 英中
   Text #5
      ID : 5
      Format : UTF-8
      Codec ID : S_TEXT/UTF8
      Codec ID/Info : UTF-8 Plain Text
      Title : 中文
   Text #6
      ID : 6
      Format : UTF-8
      Codec ID : S_TEXT/UTF8
      Codec ID/Info : UTF-8 Plain Text
      Title : 英文




分享到: 新浪微博新浪微博 QQ空间QQ空间 腾讯微博腾讯微博 腾讯朋友腾讯朋友

谢谢发片

TOP

多谢分享了啊

TOP

好片必须顶起来。哈哈。

TOP

居然还有真人电影版的。。。。额。。。
谢谢楼主发片
比较喜欢蓝光和原声啊

TOP

返回列表