返回列表 发帖

[高清MKV电影] 消失的子弹 The.Bullet.Vanishes.2012.BluRay.720p.x264.AC3-WOFEI 国粤双语

http://bbs.hd62.com/thread-607318-1-1.html





◎片  名  The Bullet Vanishes
◎译  名  消失的子弹
◎年  代 2012
◎国  家 中国
◎类  别 剧情/动作
◎语  言 普通话
◎字  幕 中文
◎IMDB评分  6.5/10 (83 votes)
◎下载链接 http://bbs.hd62.com/forum-138-1.html
◎文件格式 x264 + AC3
◎视频尺寸 1280 x 720
◎文件大小 1CD 2.39G
◎片  长 1h:47min:43s
◎导  演  罗志良 Chi-Leung Law
◎主  演  谢霆锋 Nicholas Tse  ....郭追
      刘青云 Ching Wan Lau  ....松东路
      杨幂 Mini Yang  ....小云雀
      井柏然 Boran Jing  ....小五
      吴刚 Gang Wu  ....金局长
      廖启智 Kai Chi Liu  ....丁老板
      郑希怡 Hei-Yi Cheng  ....女法医
      江一燕 Yiyan Jiang  ....女囚傅源
      李广斌 Guang-bin Li  ....李进
      高虎 Hu Gao
      钱嘉乐 Kar Lok Chin


◎简  介 

  民国时期,国内最大的兵工厂发生离奇命案,死者被“幽灵子弹”所杀——犯罪现场找不到弹头。一时之间,疑云密布,人心惶惶,此案堪称民国第一奇案。不只是新影此案交由警局内负责管理档案的政务警察老包调查(刘青云饰演),担任文职的老包既不会拳脚功夫,也不懂如何开枪,却思想缜密,对破疑难杂案有独特方式。一心为民除害的热血警探郭追(谢霆锋饰演)不容于警局T·WF·B氛围,联手老包调查此离奇命案。不只是新影如何开枪不用子弹?如何让子弹在穿入肉体的时候消失?老包和郭追在枪和子弹上做了各种各样的研究,包括向猪身体发射盐子弹、冰子弹等等,却没有任何满意的结果不只是新影。随着案×深入,两位警探抽丝剥茧式发现恐怖阴森的杀人密室和离奇的造弹装置,其诡异程度让经验丰富的老包也瞠目结舌。就在“幽灵子弹杀人”真相揭开之际,老包、郭追却接二连三遭人追杀,警察小五(井柏然饰演)在开枪掩护老包、郭追逃亡之时惨死。结案期限迫在眉睫,算命姑娘小云雀(杨幂饰演)不经意间透露出“幽灵子弹”惊天秘密,两人不知这个“惊天秘密”是圈套还是破案线索,却发誓要以命相搏!案情终于水落石出,郭追和老包却发现各自的命运被无情捉弄,两人只能活一个的选择摆在他们面前……

◎幕后制作

  ◇大手笔造军工厂 全景展现民国宫野

     作为首部揭秘民国第一奇案的枪战巨制,《奇案风云之消失的子弹》不惜重金,将在大银幕全景式展现民国时期中国工业社会的风貌。为此,影片的导演罗志良与美术总监张世宏参考了大量的史料,对民国时期的三大兵工厂太原兵工厂、沈阳兵工厂和汉阳兵工厂进行深入研究,并整合了这些兵工厂的特点为已用,细致地将原兵工厂中的动力厂、机械厂、炮弹厂和制枪厂等各部分还原。据美术总监张世宏介绍,此番重金打造的的民国第一兵工厂,造价高达1700万元人民币,占地超过百亩,包含制造车间、试验室、试枪室、设计室在内的八课及六个制造所。其中全厂机器超过万部,日出步枪130枝,枪弹41万发,并增建高射炮厂,整体耗时2个半月搭建完成,动用职员及工人达30000余人。

  ◇谢霆锋刘青云“组团”破血案  一个靠“八卦”一个靠“热血”

     距离上次刘青云演侦探已有5年,而此次在《消失的子弹》中饰演的神探则更加怪异。刘青云表示:“《神探》里的角色主要是靠特殊能力,而《消失的子弹》里的探员却是个非常喜欢推理的普通人。”当被问起做神探最重要的元素,刘青云却出人意料的表示是“八卦”:“其实我觉得每个侦探都是八卦的人,只有内心八卦,才会不断探索、不断追寻,从而知道很多别人不知道的事。”


  片中与刘青云一同办案的谢霆锋,是个性格火爆的警察,两人亦通过蛛丝马迹找出层层线索追查真凶。对于首次与刘青云的合作,谢霆锋也笑着说道:“我接这个戏有两个原因,一是剧本精彩好看,二就是能跟刘青云合作,他是我敬佩的前辈。”监制尔冬升还透露,谢霆锋这次在片中除了热血火爆的动作和破案戏,还将有一场火辣的床戏,不过能保留多少就得指望导演的“剪刀手”,对此谢霆锋委屈接话:“剪掉我不是白干了……”


  ◇五年磨一剑制造优质剧本 “黄金搭档”携手打造野心之作

      素有“香港警匪片教父”之称的尔冬升与导演罗志良曾是一对著名的黄金师徒搭档,《枪王》、《烈火战车》、《异度空间》等经典港式电影皆是出自他们之手。此次12年之后的再度联手,无论是火爆场面还是紧张复杂的故事情节都强势升级。对于此次再度联手,尔冬升表示:“看完这个剧本之后我就决定要一起合作了。这个电影的剧本非常之棒,刚开始时罗志良只是简单的和我说了下故事大纲,并且让我猜猜结局,但是我猜了十遍都猜不到,最终完全看完剧本才知道。这是一个难得的好剧本,太值得去合作了。”


  导演罗志良则表示:“这是一个很传奇的故事,所以在那个年代是最合适不过。而故事中的情节更是复杂。这个剧本花了5年的时间来打磨。每个人都在寻找一颗消失的子弹,每个人也都是这个奇案中的可疑人物。每一次好像解开了谜,但很快又被否定。如何要让故事合理,又能拍得好看,而且可以让观众陷入其中,这是一个非常费脑力的过程。我们动用了很多的人来一起把这个故事完善,无休止的修改了很多遍。把这个复杂的剧本写出来并且拍成好看的电影很不容易,但我很有信心这部电影一定会非常好看。”

  ◇杨幂首度尝试短发波波头 刘青云以“偶像派”自居

      四大主演谢霆锋、刘青云、杨幂、廖启智的角色造型都是时下大热的“英伦复古风”,几位主演表情或阴狠、或沉着、或诡谲、或坚毅,不动声色的外表下暗藏着各自的性格与命运。导演罗志良表示:“很多观众一直有个误解觉得民国时期是爷爷奶奶的时代,所有东西都很陈旧古老,其实民国时我们的时尚是与纽约伦敦并驾齐驱的,今天我们讲究的‘复古风’都是在跟我们的爷爷奶奶‘偷师’。”


      而作为“算命女郎”的杨幂在本片中第一次尝试短发造型,复古波波头与圆眼镜十分抢眼,被人戏称为“幂半仙”。对此杨幂透露:“这次的造型是导演亲自指定的,就想让我显得有点神秘又具备时尚的感觉,虽然女人味少了几分,但是却多了点‘神探’的味道。”有趣的是在看过造型之后,幽默的刘青云将主演分成了两大派,“杨幂与霆锋当然都是‘实力派’,至于我自己因为太时尚自然就是不折不扣的‘偶像派’了。”

  ◇杨幂自曝与偶像演床戏紧张不已 男友刘恺威会体谅

      早前杨幂就曾在很多场合表示过谢霆锋是自己从小以来的偶像,这次在《子弹》中与偶像演“床戏”感受如何,自然是很多人最关心的问题。对此,杨幂透露,“由于刚进组三天便拍了这场戏,所以我特别紧张,加上霆锋本人也没有什么这方面(拍床戏)的经验,所以我拍之前还喝了些红酒,好在现场是三台摄像机一起拍的,所以一遍就过了。”不过杨幂还笑称,“拍完那场戏霆锋和导演在旁边一次次看回放还点评哪里拍得不错,我在一旁觉得非常尴尬。”现场有人问杨幂拍床戏是否需要和男友刘恺威报备时,杨幂大方表示“大家都是演员,可以互相体谅”。

E:\rmvb资源\[高清MKV收藏www.hdbird.com]\老鸟家园[bbs.hd62.com].消失的子弹.720p.国粤双语\消失的子弹 The.Bullet.Vanishes.2012.BluRay.720p.x264.AC3-WOFEI.mkv
   General
      Unique ID : 187671069195720351390248581958537242341 (0x8D30221878F59A63914FB6B96FE6E6E5)
      Complete name : E:\rmvb资源\[高清MKV收藏www.hdbird.com]\老鸟家园[bbs.hd62.com].消失的子弹.720p.国粤双语\消失的子弹 The.Bullet.Vanishes.2012.BluRay.720p.x264.AC3-WOFEI.mkv
      Format : Matroska
      Format version : Version 2
      File size : 2.39 GiB
      Duration : 1h 47mn
      Overall bit rate : 3 170 Kbps
      Encoded date : UTC 2012-11-23 06:19:26
      Writing application : mkvmerge v3.4.0 ('Rapunzel') 编译于 May 15 2010 09:38:20
      Writing library : libebml v0.8.0 + libmatroska v0.9.0
   Video #1
      ID : 1
      Format : AVC
      Format/Info : Advanced Video Codec
      Format profile : High@L4.1
      Format settings, CABAC : Yes
      Format settings, ReFrames : 5 frames
      Codec ID : V_MPEG4/ISO/AVC
      Duration : 1h 47mn
      Bit rate : 2 274 Kbps
      Width : 1 280 pixels
      Height : 720 pixels
      Display aspect ratio : 16:9
      Frame rate : 24.000 fps
      Color space : YUV
      Chroma subsampling : 4:2:0
      Bit depth : 8 bits
      Scan type : Progressive
      Bits/(Pixel*Frame) : 0.103
      Stream size : 1.66 GiB (70%)
      Writing library : x264 core 116 r2074 2641b9e
      Encoding settings : cabac=1 / ref=5 / deblock=1:-1:-1 / analyse=0x3:0x113 / me=umh / subme=6 / psy=1 / psy_rd=1.00:0.00 / mixed_ref=1 / me_range=16 / chroma_me=1 / trellis=2 / 8x8dct=1 / cqm=0 / deadzone=21,11 / fast_pskip=1 / chroma_qp_offset=-2 / threads=12 / sliced_threads=0 / nr=0 / decimate=1 / interlaced=0 / bluray_compat=0 / constrained_intra=0 / bframes=3 / b_pyramid=0 / b_adapt=1 / b_bias=0 / direct=3 / weightb=1 / open_gop=0 / weightp=2 / keyint=250 / keyint_min=23 / scenecut=40 / intra_refresh=0 / rc_lookahead=40 / rc=2pass / mbtree=1 / bitrate=2274 / ratetol=1.0 / qcomp=0.60 / qpmin=10 / qpmax=51 / qpstep=4 / cplxblur=20.0 / qblur=0.5 / vbv_maxrate=50000 / vbv_bufsize=50000 / nal_hrd=none / ip_ratio=1.40 / aq=1:1.00
   Audio #2
      ID : 2
      Format : AC-3
      Format/Info : Audio Coding 3
      Mode extension : CM (complete main)
      Codec ID : A_AC3
      Duration : 1h 47mn
      Bit rate mode : Constant
      Bit rate : 448 Kbps
      Channel(s) : 6 channels
      Channel positions : Front: L C R, Side: L R, LFE
      Sampling rate : 48.0 KHz
      Bit depth : 16 bits
      Compression mode : Lossy
      Stream size : 345 MiB (14%)
      Title : 国语
   Audio #3
      ID : 3
      Format : AC-3
      Format/Info : Audio Coding 3
      Mode extension : CM (complete main)
      Codec ID : A_AC3
      Duration : 1h 47mn
      Bit rate mode : Constant
      Bit rate : 448 Kbps
      Channel(s) : 6 channels
      Channel positions : Front: L C R, Side: L R, LFE
      Sampling rate : 48.0 KHz
      Bit depth : 16 bits
      Compression mode : Lossy
      Stream size : 345 MiB (14%)
      Title : 粤语
   Text #4
      ID : 4
      Format : UTF-8
      Codec ID : S_TEXT/UTF8
      Codec ID/Info : UTF-8 Plain Text
      Title : 中文




分享到: 新浪微博新浪微博 QQ空间QQ空间 腾讯微博腾讯微博 腾讯朋友腾讯朋友

谢谢发片

TOP

多谢楼主分享了

TOP

粤语原声怎能不支持!

谢谢楼主发片!
比较喜欢蓝光和原声啊

TOP

感觉好讨厌的样子

TOP

多谢楼主分享

TOP

返回列表