返回列表 发帖

[高清MKV电影] 以火攻火 Fire.with.Fire.2012.BluRay.720p.x264.AC3-WOFEI 中英字幕

http://bbs.hd62.com/thread-607652-1-1.html






◎译  名 以火攻火
◎片  名 Fire With Fire
◎年  代 2012
◎国  家 美国
◎类  别 动作/犯罪/惊悚
◎语  言 英语
◎字  幕 中英字幕/中文字幕/英中字幕/英文字幕
◎IMDB评分 5.0/10 from 35 users
◎IMDB链接 http://bbs.hd62.com/forum-30-1.html
◎文件格式 x264 + AC3
◎视频尺寸 1280 x 720
◎文件大小 1CD 2.05G
◎片  长 01:37:32 (h:m:s)
◎导  演 David Barrett
◎主  演 布鲁斯·威利斯 Bruce Willis ....Mike Cella
      乔什·杜哈明 Josh Duhamel ....Jeremy Coleman
      罗莎里奥·道森 Rosario Dawson ....Talia Durham
      文森特·诺费奥 Vincent D'Onofrio ....Hagan
      维尼·琼斯 Vinnie Jones
      50分 50 Cent
      邦妮·萨摩维莉 Bonnie Somerville ....Karen Westlake
      凯文·杜恩 Kevin Dunn ....Agent Mullens
      艾里克·温特 Eric Winter ....Adam
      昆顿·杰克逊 Quinton Jackson
      理查德·希夫 Richard Schiff
      克里斯托弗·贝瑞 Christopher Berry ....Paulie
      詹姆斯·雷杰 James Lesure ....Craig
      朱利安·麦克马洪 Julian McMahon ....Robert
      Yohance Myles ....Deputy Parker
            

◎简  介 

  影片《以火攻火》讲述乔什·杜哈明扮演的消防员杰里米下班后与同事到超市采购,想买点酒解解馋。偶然撞见黑帮头子黑根(文森特·诺费奥饰)绑架超市店员。杰里米拼尽全力救出店员并报警。警员迈克(布鲁斯·威利斯饰)在调查黑根档案的过程中对他的前科发生兴趣。 

  善良的杰里米却因参与案件调查而被警方保护起来,与他心爱的工作暂时分离。在绑架案调查中,杰里米爱上女警员塔莉亚(罗莎里奥·道森饰)。在黑根律师的努力下,这个罪犯仅仅在监狱中关了几周就出狱了。这时,杰里米和塔莉亚感到自己处于危险境地。不久,黑根派人重伤警员塔莉亚,杰里米带着女友跑到长岛躲避。不料,黑根带着手下追踪至此,被逼无奈的杰里米一个一个干掉这些黑帮分子,保护自己心爱的女人。

E:\rmvb资源\[高清MKV收藏www.hdbird.com]\老鸟家园[bbs.hd62.com].以火攻火.720p.中英字幕\以火攻火 Fire.with.Fire.2012.BluRay.720p.x264.AC3-WOFEI.mkv
   General
      Unique ID : 240399529652110418124408086398231546016 (0xB4DB43E937946F88AF945A63A7F288A0)
      Complete name : E:\rmvb资源\[高清MKV收藏www.hdbird.com]\老鸟家园[bbs.hd62.com].以火攻火.720p.中英字幕\以火攻火 Fire.with.Fire.2012.BluRay.720p.x264.AC3-WOFEI.mkv
      Format : Matroska
      Format version : Version 2
      File size : 2.05 GiB
      Duration : 1h 37mn
      Overall bit rate : 3 011 Kbps
      Encoded date : UTC 2012-11-27 12:24:08
      Writing application : mkvmerge v3.4.0 ('Rapunzel') 编译于 May 15 2010 09:38:20
      Writing library : libebml v0.8.0 + libmatroska v0.9.0
   Video #1
      ID : 1
      Format : AVC
      Format/Info : Advanced Video Codec
      Format profile : High@L4.1
      Format settings, CABAC : Yes
      Format settings, ReFrames : 5 frames
      Codec ID : V_MPEG4/ISO/AVC
      Duration : 1h 37mn
      Bit rate : 2 561 Kbps
      Width : 1 280 pixels
      Height : 720 pixels
      Display aspect ratio : 16:9
      Frame rate : 23.976 fps
      Color space : YUV
      Chroma subsampling : 4:2:0
      Bit depth : 8 bits
      Scan type : Progressive
      Bits/(Pixel*Frame) : 0.116
      Stream size : 1.71 GiB (83%)
      Writing library : x264 core 116 r2074 2641b9e
      Encoding settings : cabac=1 / ref=5 / deblock=1:-1:-1 / analyse=0x3:0x113 / me=umh / subme=6 / psy=1 / psy_rd=1.00:0.00 / mixed_ref=1 / me_range=16 / chroma_me=1 / trellis=2 / 8x8dct=1 / cqm=0 / deadzone=21,11 / fast_pskip=1 / chroma_qp_offset=-2 / threads=12 / sliced_threads=0 / nr=0 / decimate=1 / interlaced=0 / bluray_compat=0 / constrained_intra=0 / bframes=3 / b_pyramid=0 / b_adapt=1 / b_bias=0 / direct=3 / weightb=1 / open_gop=0 / weightp=2 / keyint=250 / keyint_min=23 / scenecut=40 / intra_refresh=0 / rc_lookahead=40 / rc=2pass / mbtree=1 / bitrate=2561 / ratetol=1.0 / qcomp=0.60 / qpmin=10 / qpmax=51 / qpstep=4 / cplxblur=20.0 / qblur=0.5 / vbv_maxrate=50000 / vbv_bufsize=50000 / nal_hrd=none / ip_ratio=1.40 / aq=1:1.00
   Audio #2
      ID : 2
      Format : AC-3
      Format/Info : Audio Coding 3
      Mode extension : CM (complete main)
      Codec ID : A_AC3
      Duration : 1h 37mn
      Bit rate mode : Constant
      Bit rate : 448 Kbps
      Channel(s) : 6 channels
      Channel positions : Front: L C R, Side: L R, LFE
      Sampling rate : 48.0 KHz
      Bit depth : 16 bits
      Compression mode : Lossy
      Stream size : 313 MiB (15%)
   Text #3
      ID : 3
      Format : SSA
      Codec ID : S_TEXT/SSA
      Codec ID/Info : Sub Station Alpha
      Compression mode : Lossless
      Title : 中英
   Text #4
      ID : 4
      Format : SSA
      Codec ID : S_TEXT/SSA
      Codec ID/Info : Sub Station Alpha
      Compression mode : Lossless
      Title : 英中
   Text #5
      ID : 5
      Format : UTF-8
      Codec ID : S_TEXT/UTF8
      Codec ID/Info : UTF-8 Plain Text
      Title : 中文
   Text #6
      ID : 6
      Format : UTF-8
      Codec ID : S_TEXT/UTF8
      Codec ID/Info : UTF-8 Plain Text
      Title : 英文





分享到: 新浪微博新浪微博 QQ空间QQ空间 腾讯微博腾讯微博 腾讯朋友腾讯朋友

动作片偶是喜欢看的

TOP

没隐藏也要支持下~~~

TOP

返回列表