返回列表 发帖

[高清MKV电影] 男人如衣服 Love.is.Pyjamas.2012.BluRay.720p.x264.AC3-WOFEI 国粤双语

本帖最后由 豺狼帝国 于 2012-11-29 17:36 编辑




◎译   名 Love is. . .Pyjamas
◎片   名 男人如衣服/男人如衣
◎年   代 2012
◎国   家 中国/中国香港
◎类   别 喜剧/爱情
◎语   言 粤语/普通话
◎字  幕   中文
◎IMDB评分 4.8/10 from 14 users
◎IMDB链接 http://www.imdb.com/title/tt2255398//
◎文件格式 x264 + AC3
◎视频尺寸 1280 x 720
◎文件大小 1CD 2.18G
◎片   长 01:38:25 (h:m:s)
◎导   演 谷德昭 Vincent Kok
◎主   演 黄百鸣 Bak-Ming Wong
       毛舜筠 Teresa Mo
       吴千语 Karena Ng
       林峰 Raymond Lam
       郑中基 Ronald Cheng
       熊黛林 Lynn Hung
       海清 Hai Qing
       张坚庭 Alfred Cheung

◎简   介  

  相依为命的母女俩余春天(毛舜筠 饰)和任秋水(吴千语 饰)同为品牌内裤公司擎天的设计师,虽然她们的设计颇受欢迎,但是这家秋水舅舅Hugo(黄百鸣 饰)的公司在运营上出现了问题。关键时刻,他找到了4年前分手的女友——现为某时尚女装品牌的老板缪斯(海清 饰)。缪斯不计前嫌,同意帮Hugo摆脱困境,但条件是擎天必须设计一款名字为“男人如衣服”的女装。为了实现翻盘,Hugo在全体动员的同时,还请来了名设计师Jojo(熊黛林 饰)。Jojo傲慢的态度令秋水母女大为光火,她们提议和Jojo分别设计,最后由缪斯定夺。

  在这一过程中,秋水此前结识的临时演员阿费(郑中基 饰)和伙伴奥文(林峰 饰)加入进来,令这场对决变得妙趣横生 ······


幕后制作

  《男人如衣服》由谷德昭与陈茂贤编剧并执导、黄百鸣、冯凯帅担任监制,海清特别演出,林峯、熊黛林、郑中基、吴千语、黄百鸣、毛舜筠主演。杭州天马影视文化有限公司、上海凯羿影视传播有限公司、福建恒业电影发行有限公司联合出品的女性崭新恋爱态度的都市喜剧时尚大片。

林峰化身女人汤圆

  郑中基、毛舜筠担任主角,导演谷德昭还邀请了各方好友为电影客串,包括八両金、苏民峰,电影《男人如衣服》饰演摄影师的林峰,将化身成Lucky Owen,因为凡与他拍过拖的女子,将来都能嫁入豪门,所以Lucky Owen在女性群中十分出名,希望能与林峰短暂拍拖,火速甩拖后就可找到富贵真命天子。不过,多番受情伤的林峰,原来一直希望得到真姻缘,於是便向街头算命师苏民峰求救,但原来苏师傅都对这位女人汤圆塔糖。林峰笑说︰「我觉得这角色挺适合我的,自己演的时候都很舒服。其实每一场戏都很搅笑,不只是戏内,有时是导演嗌了cut,我们才笑个不停。」

  电影《男人如衣服》除了有喜剧能峰师傅等等。谷德昭笑说︰「苏民峰一直系我吉祥物,每次有他客串的电影,都有很好的票房。今次又要出动我的神兽苏师傅,基乎每套电影我都会搞佢啲头发,在《行运超人》我将他的秀发拆散,今次《男人如衣服》我又拆散,但苏师傅真的好帮手,什麼都配合。」   

林峰首演喜剧电影

  电影《男人如衣服》谷德昭与郑中基已是第七次合作,可谓默契十足。但林峰郤是第一次参与喜剧电影,角色名字叫Owen,著名摄影师,不过他的作品经常拍得濛濛龙龙,所以被笑称为「OUT FOU王」。由於他在戏中是郑中基的表弟,所以二人有很多对手戏份,而导演谷德昭曾为此担心:「我曾幻想林峰拍电影时好chok,如何演喜剧呢?因为演喜剧的节奏是要有默契。但拍完第一天我就很放心,原来佢chok就梗,但他不介意不靓仔,还好肯尝试,他能表演百厌、肯氹人开心,这都是喜剧演员必备条件,我觉得他佢跟郑中基有好好的化学作用。」

  而对手郑中基亦大赞这位好「表弟」:「我觉得与林峰演对手戏很有喜剧火花,他做得非常之好,我信相他某些表情及动作,是观众从未见过的。」   面对搞笑双雄的力赞,林峰表示十分感谢:「多谢谷导演的信任,而Ronald是一名很好的喜剧对手,他可以带动到我,又从他身上学到很多喜剧的timing,撞出很多意想不到的效果。」
  
黄百鸣:新作新动力,影视离不开时尚

  同为《男人如衣服》监制及主演的黄百鸣表示:“这部电影融入了大量的时尚元素,明星造型时尚、故事题材时尚、拍摄方式时尚,总之就是一部时尚大片。影视要与时代接轨,就要与时尚接轨,总有人认为时尚是很肤浅的词汇,其实不然,它其中隐藏着很丰富的内涵等着我们去挖掘,我很想用我的作品去体现那种感觉,那种你看了之后会不自然的想去追随,能够唤起更多人赞许和共鸣的时尚感觉。《男人如衣服》给了我新的动力,就是让大家更好的认知时尚,了解影视人的时尚创作。同时需要感谢一下即将要参演《男人如衣服》的各位明星朋友们,希望我们大家合作愉快!”

  冯凯帅:电影也有三魂七魄 ,找到最佳合作排档   刚刚结束《倾城之泪》海外放映发行工作的冯凯帅,又不停歇的开始了《男人如衣服》的筹划,从选角开始便经常与黄百鸣协商斟酌到深夜,冯凯帅表示:“电影故事固然重要,演绎故事中人物的演员则更加重要。电影其实也有三魂七魄,导演意志魂、演员表演魂、剪辑构架魂,七魄就是第一魄——出品公司气势,二魄——故事内容灵慧,三魄——剧组构架完整,四魄——拍摄准备到位,五魄——拍摄火花四溢,六魄——宣传细致到位,七魄——国内外发行给力。这次非常高兴能够与黄百鸣这样的金牌监制合作,感觉这三魂七魄都归位了,现在《男人如衣服》的宣传植入也由子公司北京丹橘莎如火如荼的进行,《男人如衣服》一定会众望所归。”   

郑中基延续搞笑风 小人物凸显励志主题

  郑中基在片中依然主力负责搞笑:“我演一个临时演员,四处给人当托儿。”虽然他依旧以喜剧形象示人,一如既往地延续以往标志性的夸张的动作语言和爆笑演出,但郑中基此次却要颠覆形象,出演一个类似“屌丝男”的小人物,片中他的角色不仅要面临严峻的生活压力,更要接受来自情感的挑战,这使得影片在搞笑之余有点励志也有点感动。可以说,此次郑中基在《男人如衣服》中的表演颇有深度,这部影片也如同《老港正传》一般证明了郑中基不仅只会搞笑


演员介绍
  
郑中基Ronald Cheng

  自1996年获叱吒乐坛流行榜、无线十大劲歌金曲、香港电台十大中文金曲、新城劲爆流行音乐、Channel V中文TOP20、ICRT等华语乐坛新人及歌曲奖项,其后一直获奖无数。2005年更凭《无赖》一曲横扫华语乐坛十多个奖项。2000年主持搞笑综艺节目《爆笑急转弯》,郑中基的喜剧细胞被发掘出来。2002年与卢巧音合作情景喜剧《开心新班子》后更积极转型成为喜剧演员,拍过多部喜剧。在谷德昭执导的《行运超人》和《龙咁威2003》中的女装造型,大受观众欢迎。更凭电影《老港正传》获第二十七届香港电影金像奖最佳男配角提名,及以《机器侠》小江一角, 获得第十四届Channel V华语音乐榜中榜香港地区最佳电影男演员奖。
  
毛舜筠Teresa Mo

  毛舜筠出身於已停播的丽的电视,继而在佳艺电视之重头剧《红楼梦》中饰演林黛玉。1981年正式在无线电视亮相,如1984年的《鹿鼎记》她饰演沐剑屏,和翌年《杨家将》饰演杨三娘。1991年加入影坛主力拍摄电影,以饰演喜剧角色为主,最为人熟悉且最成功的电影,乃1992年与张国荣合演的电影《家有囍事》,上画后票房高达四千九百万港元,破了历来票房纪录。毛舜筠多次入围香港金像奖女主角与女配角,於2006年凭《早熟》夺得第25届香港电影金像奖最佳女配角奖。
    
林峰Raymond Lam

  香港歌影视三栖红星,1999年以旁听生身份参加无线第十三期艺员训练班, 2001年演出《寻秦记》中的秦始皇赢政,是林峰令观众留下深刻印象的第一个角色。自始於电剧中活跃。2008年凭《太极》荣获第13届亚洲电视大奖最佳戏剧男演员奖,是首位获此殊荣的香港明星。2009年起连续三年在香港红磡体育馆举办个人演唱会,打破香港新世纪歌手在红馆连开个唱记录,连续两年获得IFPI香港唱片销量大奖「全年最高销量男歌手」,连续三年获得十大劲歌「亚太区最受欢迎香港男歌星」,成功举办数场个唱,世界巡回演唱会。主演的电影「白蛇传说」内地票房过2亿,入选68届威尼斯国际电影节展映单元。    

熊黛林Lynn Xiong

  中国著名模特儿及演员,1999年到上海发展,获得「中国民族模特大赛」季军。2002年夺得「中国最佳时装模特儿」及「中国十佳模特儿」。2006年后多在香港发展,演出多部影视剧。代表作品有《叶问》、《拜金女王》等。   

吴千语Karena Ng

  香港模特儿及电影演员,除此之外,还与另外4位组成新一代「开心少女组」,包括潘杰宁、李蔓莹、陈嘉宝,以及郭善珩。拍摄《开心魔法》,作电影处女演出。   

黄百鸣Raymond Wong

  早在1982年拍摄的《最佳拍档》便大受欢迎,票房劲收2700万港币轰动全香港,以强势姿态打倒同期上映的《少林寺》、《龙少爷》及《十八般武艺》,为迄今香港最高入场人次的港产片。其后的代表作《小生怕怕》、《开心鬼》系列、《恭喜发财》等等,在上画时都有逾千万票房。其监制及演出的1992年贺岁电影《家有囍事》取得了4900万票房,再度大破历来港产片票房纪录。5年后拍成的续集《97家有喜事》也取得了4000万票房纪录。2010年,黄加入天马电影,担任行政总裁,旗下拍摄《叶问》、《最强囍事》等卖座电影。 
  
海清Hai Qing

  毕业於北京电影学院。2003年演出电视剧《玉观音》正式出道,2009年前后她在滕华涛导演的电视剧《双面胶》、《王贵与安娜》、《蜗居》中塑造了生动的屏幕形象。2010年主演《媳妇的美好时代》取得极大成功,被称为「国民媳妇」,凭借该片获得第25届中国电视金鹰奖最受观众喜爱、最具人气女演员奖以及第28届中国电视剧飞天奖优秀女演员奖。

E:\rmvb资源\[高清MKV收藏www.hdbird.com]\老鸟家园[bbs.hd62.com].男人如衣服.720p.国粤双语\男人如衣服 Love.is.Pyjamas.2012.BluRay.720p.x264.AC3-WOFEI.mkv
   General
      Unique ID : 207697996873041702259100405990822749185 (0x9C412DDD36B7763C9C70545F3E3BA401)
      Complete name : E:\rmvb资源\[高清MKV收藏www.hdbird.com]\老鸟家园[bbs.hd62.com].男人如衣服.720p.国粤双语\男人如衣服 Love.is.Pyjamas.2012.BluRay.720p.x264.AC3-WOFEI.mkv
      Format : Matroska
      Format version : Version 2
      File size : 2.36 GiB
      Duration : 1h 38mn
      Overall bit rate : 3 431 Kbps
      Encoded date : UTC 2012-11-29 08:53:05
      Writing application : mkvmerge v3.4.0 ('Rapunzel') 编译于 May 15 2010 09:38:20
      Writing library : libebml v0.8.0 + libmatroska v0.9.0
   Video #1
      ID : 1
      Format : AVC
      Format/Info : Advanced Video Codec
      Format profile : High@L4.1
      Format settings, CABAC : Yes
      Format settings, ReFrames : 5 frames
      Codec ID : V_MPEG4/ISO/AVC
      Duration : 1h 38mn
      Bit rate : 2 533 Kbps
      Width : 1 280 pixels
      Height : 720 pixels
      Display aspect ratio : 16:9
      Frame rate : 24.000 fps
      Color space : YUV
      Chroma subsampling : 4:2:0
      Bit depth : 8 bits
      Scan type : Progressive
      Bits/(Pixel*Frame) : 0.115
      Stream size : 1.70 GiB (72%)
      Writing library : x264 core 116 r2074 2641b9e
      Encoding settings : cabac=1 / ref=5 / deblock=1:-1:-1 / analyse=0x3:0x113 / me=umh / subme=6 / psy=1 / psy_rd=1.00:0.00 / mixed_ref=1 / me_range=16 / chroma_me=1 / trellis=2 / 8x8dct=1 / cqm=0 / deadzone=21,11 / fast_pskip=1 / chroma_qp_offset=-2 / threads=12 / sliced_threads=0 / nr=0 / decimate=1 / interlaced=0 / bluray_compat=0 / constrained_intra=0 / bframes=3 / b_pyramid=0 / b_adapt=1 / b_bias=0 / direct=3 / weightb=1 / open_gop=0 / weightp=2 / keyint=250 / keyint_min=23 / scenecut=40 / intra_refresh=0 / rc_lookahead=40 / rc=2pass / mbtree=1 / bitrate=2533 / ratetol=1.0 / qcomp=0.60 / qpmin=10 / qpmax=51 / qpstep=4 / cplxblur=20.0 / qblur=0.5 / vbv_maxrate=50000 / vbv_bufsize=50000 / nal_hrd=none / ip_ratio=1.40 / aq=1:1.00
   Audio #2
      ID : 2
      Format : AC-3
      Format/Info : Audio Coding 3
      Mode extension : CM (complete main)
      Codec ID : A_AC3
      Duration : 1h 38mn
      Bit rate mode : Constant
      Bit rate : 448 Kbps
      Channel(s) : 6 channels
      Channel positions : Front: L C R, Side: L R, LFE
      Sampling rate : 48.0 KHz
      Bit depth : 16 bits
      Compression mode : Lossy
      Stream size : 315 MiB (13%)
      Title : 国语
   Audio #3
      ID : 3
      Format : AC-3
      Format/Info : Audio Coding 3
      Mode extension : CM (complete main)
      Codec ID : A_AC3
      Duration : 1h 38mn
      Bit rate mode : Constant
      Bit rate : 448 Kbps
      Channel(s) : 6 channels
      Channel positions : Front: L C R, Side: L R, LFE
      Sampling rate : 48.0 KHz
      Bit depth : 16 bits
      Compression mode : Lossy
      Stream size : 315 MiB (13%)
      Title : 粤语
   Text #4
      ID : 4
      Format : UTF-8
      Codec ID : S_TEXT/UTF8
      Codec ID/Info : UTF-8 Plain Text
      Title : 中文

分享到: 新浪微博新浪微博 QQ空间QQ空间 腾讯微博腾讯微博 腾讯朋友腾讯朋友

多谢分享了的啊

TOP

链接呢?

TOP

帝国楼主,忘记发链接啦。。。
比较喜欢蓝光和原声啊

TOP

支持一下!!!!!!!!!!!

TOP

太精彩了

TOP

貌似  剧情还是很吸引人的哦   看看

TOP

多谢楼主分享

TOP

3# 剩下一个盛夏


谢谢分享

TOP

没有连接????
天天向上!

TOP

返回列表