返回列表 发帖

[高清MKV电影] 谍影重重4 The.Bourne.Legacy.2012.BluRay.720p.x264.AC3-WOFEI 中英字幕

http://bbs.hd62.com/thread-607898-1-1.html







◎译  名 谍影重重4/神鬼认证4(台)/叛谍追击4:机密逃杀(港)
◎片  名 The Bourne Legacy
◎年  代 2012
◎国  家 美国
◎类  别 动作 冒险 悬疑 惊悚
◎语  言 英语
◎字  幕 中英字幕/中文字幕/英中字幕/英文字幕
◎I M D B   http://bbs.hd62.com/forum-132-1.html
◎评    分  6.9/10 from 46,465 users
◎文件格式 x264 + AC3
◎视频尺寸 1280 x 720
◎文件大小 1CD 2.73G
◎片  长 135 Mins
◎导  演 托尼·吉尔罗伊
◎主  演 杰瑞米·雷纳 Jeremy Renner  ....Aaron Cross
                  爱德华·诺顿 Edward Norton  ....Retired Col. Eric Byer, USAF
                  蕾切尔·薇姿 Rachel Weisz  ....Dr. Marta Shearing
                  阿尔伯特·芬尼 Albert Finney  ....Dr. Albert Hirsch
                  琼·艾伦 Joan Allen  ....Pam Landy
                  奥斯卡·伊萨克 Oscar Isaac  ....Outcome #3
                  唐娜·墨菲 Donna Murphy  ....Dita Mandy
                  斯科特·格林 Scott Glenn  ....Ezra Kramer
                  大卫·斯特雷泽恩 David Strathairn  ....Noah Vosen
                  斯泰西·基齐 Stacy Keach  ....Retired Adm. Mark Turso, USN
                  Michael Chernus  ....Arthur Ingram
                  寇瑞·斯托尔 Corey Stoll  ....Zev Vendel
                  伊丽莎白·马弗尔 Elizabeth Marvel  ....Dr. Connie Dowd
                  希娜·柯莱特 Sheena Colette  ....Candent Woman #2 (uncredited)
                  丹尼斯·伯特斯卡瑞斯 Dennis Boutsikaris  ....Terrence Ward
                  迈克尔·帕帕约翰 Michael Papajohn  ....Larry
                  克里·约翰逊 Corey Johnson  ....Ray Wills
      
简  介 

  因为前面的任务完全失败,并且在公众中造成了极坏的影响,所以ZF决定停止所有的CIA的秘密行动和培训计划,这里就包括一个叫做“结果行动”的行动。这个行动是CIA在“触石行动”失败后,重新开展的一个培训秘密杀手的行动,两者之间有着千丝万缕的联系。
  不过,如今CIA要关闭“结果行动”,他们的做法非常血腥--对仍对该计划念念不忘,并且掌握某些“特殊材料”的设计者和特工斩尽杀绝。这其中就有特工艾伦·克洛世和史蒂芬妮·幸德博士。他们要设法逃出CIA的监控,并躲开特工拜耶的追杀。
  于是,一场猫和老鼠较量的好戏就此上演……

幕后制作


     《谍影重重4》由前三部《谍影重重》的编剧托尼·吉尔罗伊执导,英文片名为“伯恩的遗产”(The Bourne Legacy),这是一个全新的故事,不会有前三部的主角杰森·伯恩。托尼·吉尔罗伊称“这部电影既不是重拍,也不是续拍或前传,没人能代替马特· 达蒙,新一集里将会有一个全新的英雄,开启全新篇章,这是个独立的计划”,这位导演还表示“杰森·伯恩将不会出现在这部影片中,但他仍然活着。前三部的故事是新一集的导火线,新片中会有一个更大的格局和阴谋”。



  全新的男主角

  在很多影迷的心中,看《谍影重重》就是在看马特·达蒙的表演。这位杰出的演员,已经赋予了这套新时代的动作片一种新的活力。所以,当环球影业决定开拍一部没有达蒙和他的伯恩的《谍影重重》的时候,每个人都捏了一把汗。而这其中最首当其冲的,就是扮演新主角的杰瑞米·雷纳。虽然在不久前上映的《碟中谍4》中,他出演动作片的能力已经被全世界影迷所认可,但是要PK达蒙的伯恩,影迷并不放心。对于此,雷纳说:“并不需要把我的角色和达蒙做比较,因为我和他扮演的是两个背景、两个模式的人。我没有忘记自己的身份,也没有在寻找自己的过去。在开拍前,我见了达蒙一面,他给了我很多的建议。他让我在片场按照导演和动作设计师的执导来做,也让我慢慢地一步一步地走进电影,走入人物的内心。除了导演之外,影片的很多工作人员都参与拍摄了这部电影的拍摄,尤其是动作设计师丹·布拉德利。他执导了前三部电影的动作场面,在这部电影中我依然和他合作。他为我设计了一些完全不同的动作戏份,就是要区别开我和达蒙。达蒙告诉我,要相信这些人在片场做的一切,我按照他的话做了。我很信任这些工作人员,他们的工作很棒,的确是值得信赖的。”

  谈到影片与前作的关联,导演托尼·吉尔罗伊说:“这是一部全新的影片,我们有一个新的演员还有一个新的故事。达蒙在整个故事序列中并没有死亡,只是没有出现而已。因为他的故事已经算是结束了。如果这个系列想要再继续延展下去,那就一定要有新的内容来填充。并不是说没有伯恩,《谍影重重》系列就难以为继,重要的是我们怎么展开这个故事。怎么把这个故事讲述的令人信服。拉斯贝德写了一个漂亮的故事,很圆满地把故事从伯恩的身上转移了下来。我想,如果有可能的话,我会在下一集里让伯恩重新出现。”

  更刺激的特工故事

  《谍影重重4》的开拍经历了重重困难,环球公司之所以同意这部电影的开拍,是因为首先《谍影重重》系列是一个金矿,其次新的、更为宏大和惊险的故事很可能会让这套电影成为常青树。环球私下里的想法是,把《谍影重重》拍摄成007式的系列电影。所以,他们对《谍影重重4》所投入的精力不容小觑。

  关于影片的故事和场面,托尼·吉尔罗伊显得自信十足。他说:“你觉得你看到了很多东西么?其实不是的。如果你觉得前三集的《谍影重重》就已经把故事说尽了,那就错了。在这部电影里,我们将会为影片撰写一个更大规模,更风趣、更有看点的故事。前面的故事里提到的触石行动,并不仅仅是整个影片所架构出来的世界中唯一一个存在黑问题的行动。在这部电影中,将会有更大的秘密和黑暗的事件被揭露出来。所以,可以说,影片并不是伯恩故事的继续,而是另一个发生在同一个世界里的新的故事。为了拍摄这部电影,我们把故事设定得更大、更刺激、更令人激动、更有看点。我们找来了很多前三部《谍影重重》的工作人员继续在影片中工作,目的就是为了维持一种在影片最终效果上的连续性。无论是故事风格、人物设置还是剧情方面,这部电影都是‘加强版的伯恩’。”

  而谈及影片的拍摄,吉尔罗伊说:“整个拍摄过程非常有趣,剧组成员都很轻松。因为我们有了很多的经验,加之雷纳也为这部电影做了很多的准备,所以开拍之后没有遇到太多的问题,我们很流畅地就按照剧本的情节拍摄完了影片。”对于拍摄,雷纳说:“达蒙让我相信工作人员,我照做了。现在看起来,效果很好。因为这些共组人员知道自己要的结果是什么。在这样的影片中,场面、情节和导演的表述是最重要的,而人物的性格则不是那么重要,所以按照导演和动作指导的要求来做,是最保险的事情。”

E:\rmvb资源\[高清MKV收藏www.hdbird.com]\老鸟家园[bbs.hd62.com].谍影重重4.720p.中英字幕\谍影重重4 The.Bourne.Legacy.2012.BluRay.720p.x264.AC3-WOFEI.mkv
   General
      Unique ID : 188255465694696030632610429982766826773 (0x8DA0AF114AA22676A0DD87EA08B08515)
      Complete name : E:\rmvb资源\[高清MKV收藏www.hdbird.com]\老鸟家园[bbs.hd62.com].谍影重重4.720p.中英字幕\谍影重重4 The.Bourne.Legacy.2012.BluRay.720p.x264.AC3-WOFEI.mkv
      Format : Matroska
      Format version : Version 2
      File size : 2.73 GiB
      Duration : 2h 15mn
      Overall bit rate : 2 897 Kbps
      Encoded date : UTC 2012-12-02 14:20:14
      Writing application : mkvmerge v3.4.0 ('Rapunzel') 编译于 May 15 2010 09:38:20
      Writing library : libebml v0.8.0 + libmatroska v0.9.0
   Video #1
      ID : 1
      Format : AVC
      Format/Info : Advanced Video Codec
      Format profile : High@L4.1
      Format settings, CABAC : Yes
      Format settings, ReFrames : 5 frames
      Codec ID : V_MPEG4/ISO/AVC
      Duration : 2h 15mn
      Bit rate : 2 448 Kbps
      Width : 1 280 pixels
      Height : 720 pixels
      Display aspect ratio : 16:9
      Frame rate : 23.976 fps
      Color space : YUV
      Chroma subsampling : 4:2:0
      Bit depth : 8 bits
      Scan type : Progressive
      Bits/(Pixel*Frame) : 0.111
      Stream size : 2.26 GiB (83%)
      Writing library : x264 core 116 r2074 2641b9e
      Encoding settings : cabac=1 / ref=5 / deblock=1:-1:-1 / analyse=0x3:0x113 / me=umh / subme=6 / psy=1 / psy_rd=1.00:0.00 / mixed_ref=1 / me_range=16 / chroma_me=1 / trellis=2 / 8x8dct=1 / cqm=0 / deadzone=21,11 / fast_pskip=1 / chroma_qp_offset=-2 / threads=12 / sliced_threads=0 / nr=0 / decimate=1 / interlaced=0 / bluray_compat=0 / constrained_intra=0 / bframes=3 / b_pyramid=0 / b_adapt=1 / b_bias=0 / direct=3 / weightb=1 / open_gop=0 / weightp=2 / keyint=250 / keyint_min=23 / scenecut=40 / intra_refresh=0 / rc_lookahead=40 / rc=2pass / mbtree=1 / bitrate=2448 / ratetol=1.0 / qcomp=0.60 / qpmin=10 / qpmax=51 / qpstep=4 / cplxblur=20.0 / qblur=0.5 / vbv_maxrate=50000 / vbv_bufsize=50000 / nal_hrd=none / ip_ratio=1.40 / aq=1:1.00
   Audio #2
      ID : 2
      Format : AC-3
      Format/Info : Audio Coding 3
      Mode extension : CM (complete main)
      Codec ID : A_AC3
      Duration : 2h 15mn
      Bit rate mode : Constant
      Bit rate : 448 Kbps
      Channel(s) : 6 channels
      Channel positions : Front: L C R, Side: L R, LFE
      Sampling rate : 48.0 KHz
      Bit depth : 16 bits
      Compression mode : Lossy
      Stream size : 433 MiB (15%)
   Text #3
      ID : 3
      Format : SSA
      Codec ID : S_TEXT/SSA
      Codec ID/Info : Sub Station Alpha
      Compression mode : Lossless
      Title : 中英
   Text #4
      ID : 4
      Format : SSA
      Codec ID : S_TEXT/SSA
      Codec ID/Info : Sub Station Alpha
      Compression mode : Lossless
      Title : 英中
   Text #5
      ID : 5
      Format : UTF-8
      Codec ID : S_TEXT/UTF8
      Codec ID/Info : UTF-8 Plain Text
      Title : 中文
   Text #6
      ID : 6
      Format : UTF-8
      Codec ID : S_TEXT/UTF8
      Codec ID/Info : UTF-8 Plain Text
      Title : 英文




分享到: 新浪微博新浪微博 QQ空间QQ空间 腾讯微博腾讯微博 腾讯朋友腾讯朋友

感谢分享哇

TOP

多谢楼主分享

TOP

就差这部了 感谢分享
我爱娱乐最爱飞鸟

TOP

就差这部了 感谢分享
我爱娱乐最爱飞鸟

TOP

就差这部了 感谢分享

TOP

回复 1# 豺狼帝国


   谢谢掌柜分享

TOP

提示: 作者被禁止或删除 内容自动屏蔽

TOP

回复 1# 豺狼帝国 真的有附件吗??

TOP

支持发片,谢谢分享

TOP

返回列表