返回列表 发帖

云图 Cloud.Atlas.2012.BluRay.720p.x264.AC3-WOFEI 中英字幕



◎译  名 云图
◎片  名 Cloud Atlas
◎年  代 2012
◎国  家 德国/美国/中国香港/新加坡
◎类  别 剧情/悬疑/科幻
◎语  言 英语
◎字  幕 中英字幕/中文字幕/英中字幕/英文字幕
◎IMDB评分 8.2/10 from 34,453 users
◎IMDB链接 http://bbs.hd62.com/forum-30-1.html
◎文件格式 X264 + AC3
◎视频尺寸 1280 x 720
◎文件大小 1CD 3.42GB
◎片  长  2:52:07.316 (h:m:s.ms)
◎导  演 汤姆·提克威 Tom Tykwer
      安迪·沃卓斯基 Andy Wachowski
      拉娜·沃卓斯基 Lana Wachowski
◎主  演 汤姆·汉克斯 Tom Hanks  ....Dr. Henry Goose / Hotel Manager / Isaac Sachs /
      哈莉·贝瑞 Halle Berry  ....Native Woman / Jocasta Ayrs / Luisa Rey / Indian Party Guest / Ovid / Meronym
      裴斗娜 Du-na Bae  ....Tilda / Megan's Mom / Mexican Woman / Sonmi-451 / Sonmi-351 / Sonmi Prostitute
      吉姆·斯特吉斯 Jim Sturgess  ....Adam Ewing / Poor Hotel Guest / Megan's Dad /
      雨果·维文 Hugo Weaving  ....Haskell Moore / Tadeusz Kesselring / Bill Smoke / Nurse Noakes / Boardman Mephi / Old Georgie
      吉姆·布劳德本特 Jim Broadbent  ....Captain Molyneux / Vyvyan Ayrs / Timothy Cavendish / Korean Musician / Prescient 2
      本·威士肖 Ben Whishaw  ....Cabin Boy / Robert Frobisher / Store Clerk / Georgette / Tribesman
      凯斯·大卫 Keith David  ....Kupaka / Joe Napier / An-kor Apis / Prescient
      詹姆斯·达西 James D'Arcy  ....Young Rufus Sixsmith / Old Rufus Sixsmith / Nurse James / Archivist
      周迅 Xun Zhou  ....Talbot / Hotel Manager / Yoona-939 / Rose
      大卫·吉亚斯 David Gyasi  ....Autua / Lester Rey / Duophsyte
      苏珊·萨兰登 Susan Sarandon  ....Madame Horrox / Older Ursula / Yusouf Suleiman / Abbess
      休·格兰特 Hugh Grant  ....Rev. Giles Horrox / Hotel Heavy / Lloyd Hooks / Denholme Cavendish / Seer Rhee / Kona Chief
      大卫·詹森 David Jensen ....Super
      马丁·乌特克 Martin Wuttke  ....Mr. Boerhaave / Guard / Leary the Healer
      阿曼达·沃克尔 Amanda Walker  ....Veronica
      戈兹·奥托 Götz Otto  ....Groundsman Withers
      朱珠 Zhu Zhu  ....Megan Sixsmith / 12th Star Clone
      斯薇斯特·L·唐兹尔 Sylvestra Le Touzel  ....Haskell Moore's Dinner Guest 5 / Nurse Judd / Aide in Slaughtership

◎简  介 

  本片是根据英国作家大卫·米切尔(David Mitchell)的同名小说改编而成的史诗科幻巨作,由《黑客帝国》导演沃卓斯基姐弟(原沃卓斯基兄弟)联手《罗拉快跑》导演汤姆·提克威共同拍摄而成。主演更是阵容强大:包括奥斯卡影帝汤姆·汉克斯、影后哈莉·贝瑞, 雨果·维文、休·格兰特、本·威士肖、周迅、裴斗娜、苏珊·萨兰登、詹姆斯·达西等。投资超过一亿美元,由“钻石级幕后团队”所打造,制作团队中累计有67个奥斯卡奖提名。

  《云图》是大卫·米切尔的第三部小说。它的故事分为成六个部分,分别发生于1850年的太平洋、1931年的比利时、1975年的加州、21世纪初的英国、反乌托邦时代未来的内索国和后末日未来的夏威夷。六个故事看似彼此独立,但彼此之间却存在着某种神秘的相互影响,并最终形成真实的联系。该小说出版于2004年,荣膺英国国家图书奖最佳小说奖和理查与茱蒂读书俱乐部年度选书,同时入围布克奖、星云奖、克拉克奖决选。
    
  2005年,在《V字仇杀队》的拍摄现场,娜塔莉·波特曼将《云图》的原著英文小说交到了拉娜·沃卓斯基(那时的拉里·沃卓斯基)手中,从那时起他便萌生了将本片改为电影的想法。但将文字转化成为电影叙事的镜头语言这一难题,使得片方单剧本就修改了十几遍。对于故事复杂性是否会考验到观众的接受能力,制片人格兰特·希尔给予了很积极正面的回应,“《黑客帝国》和《盗梦空间》都是很费脑力的电影,但他们的票房都相当成功,很多人会痴迷的去研究和挖掘故事的更深层次。《云图》恰巧可以满足人们的这种需求。”这位好莱坞顶级制片人认为复杂的叙事和深刻的思想并不会让观众望而却步,相反会吸引更多不同层次的观众。格兰特先生也认为,本片的“重生”“涅槃”等思想十分符合亚洲人的佛家思想,因而也使得本片在亚洲的融资以及卖片计划得以顺利实施。

  故事从6个人在不同时空的生活入手,从公元1850年一直贯穿到后末日时期的未来。据悉部分演员会横穿整个影片,分别在六个故事中饰演不同的角色。我们将看到汤姆·汉克斯这样影帝级的演员与其他巨星在银幕中大玩穿越。

花絮

·汤姆·提克威和沃卓斯基姐弟共同编写了影片的剧本,并且共同执导了影片。所以,这是电影史上少见的一部三个导演共同完成并且分署编导名的非短片合集的长片作品。   

·所有的演员在最终版本的影片中都拥有不止一个角色,这些角色跨越了时间、种族,甚至是性别。在有限的拍摄时间内,演员在不同角色之间的转换相当困难,这是对他们的巨大的挑战。哈莉·贝瑞说自己在一周内分别要在不同的导演手下扮演不同的角色,她的角色分别是:1930年代的犹太人,一个部落的老女人以及一个1970年代的环保主义者。   

·影片的拍摄过程分成了两块,一块是汤姆·提克威的“剧组”,而另一块则是沃卓斯基姐弟执导的部分。这两个拍摄组互不干涉,除了演员之外,不共享任何剧组成员。   

·在拍片期间,汤姆·汉克斯开始把沃卓斯基姐弟叫成“妈妈和爸爸”,其原因是,这群人在一起合作得亲密无间。   

·这是拉里·沃卓斯基在变性后第一次以拉娜·沃卓斯基的身份与安迪·沃卓斯基一起拍片。   

·影片原作小说的作者大卫·米切尔在影片中客串了一个间谍的角色。   

·詹姆斯·麦卡沃伊和伊安·麦克莱恩这两位英伦演员原先都准备在影片中扮演角色的。


E:\rmvb资源\[高清MKV收藏www.hdbird.com]\老鸟家园[bbs.hd62.com].云图.720p.中英字幕\云图 Cloud.Atlas.2012.BluRay.720p.x264.AC3-WOFEI.mkv
   General
      Unique ID : 206183661706227266897830635909158401950 (0x9B1D87603EE74E4DB9D37D9709B5F79E)
      Complete name : E:\rmvb资源\[高清MKV收藏www.hdbird.com]\老鸟家园[bbs.hd62.com].云图.720p.中英字幕\云图 Cloud.Atlas.2012.BluRay.720p.x264.AC3-WOFEI.mkv
      Format : Matroska
      Format version : Version 2
      File size : 3.41 GiB
      Duration : 2h 52mn
      Overall bit rate : 2 837 Kbps
      Encoded date : UTC 2013-03-22 02:15:53
      Writing application : mkvmerge v3.4.0 ('Rapunzel') 编译于 May 15 2010 09:38:20
      Writing library : libebml v0.8.0 + libmatroska v0.9.0
   Video #1
      ID : 1
      Format : AVC
      Format/Info : Advanced Video Codec
      Format profile : High@L4.1
      Format settings, CABAC : Yes
      Format settings, ReFrames : 5 frames
      Codec ID : V_MPEG4/ISO/AVC
      Duration : 2h 52mn
      Bit rate : 2 389 Kbps
      Width : 1 280 pixels
      Height : 720 pixels
      Display aspect ratio : 16:9
      Frame rate : 23.976 fps
      Color space : YUV
      Chroma subsampling : 4:2:0
      Bit depth : 8 bits
      Scan type : Progressive
      Bits/(Pixel*Frame) : 0.108
      Stream size : 2.81 GiB (82%)
      Writing library : x264 core 116 r2074 2641b9e
      Encoding settings : cabac=1 / ref=5 / deblock=1:0:0 / analyse=0x3:0x113 / me=umh / subme=8 / psy=1 / psy_rd=1.00:0.00 / mixed_ref=1 / me_range=16 / chroma_me=1 / trellis=1 / 8x8dct=1 / cqm=0 / deadzone=21,11 / fast_pskip=1 / chroma_qp_offset=-2 / threads=12 / sliced_threads=0 / nr=0 / decimate=1 / interlaced=0 / bluray_compat=0 / constrained_intra=0 / bframes=3 / b_pyramid=0 / b_adapt=2 / b_bias=0 / direct=3 / weightb=1 / open_gop=0 / weightp=2 / keyint=250 / keyint_min=23 / scenecut=40 / intra_refresh=0 / rc_lookahead=50 / rc=2pass / mbtree=1 / bitrate=2389 / ratetol=1.0 / qcomp=0.60 / qpmin=10 / qpmax=51 / qpstep=4 / cplxblur=20.0 / qblur=0.5 / ip_ratio=1.40 / aq=1:1.00
   Audio #2
      ID : 2
      Format : AC-3
      Format/Info : Audio Coding 3
      Mode extension : CM (complete main)
      Codec ID : A_AC3
      Duration : 2h 52mn
      Bit rate mode : Constant
      Bit rate : 448 Kbps
      Channel(s) : 6 channels
      Channel positions : Front: L C R, Side: L R, LFE
      Sampling rate : 48.0 KHz
      Bit depth : 16 bits
      Compression mode : Lossy
      Stream size : 552 MiB (16%)
   Text #3
      ID : 3
      Format : SSA
      Codec ID : S_TEXT/SSA
      Codec ID/Info : Sub Station Alpha
      Compression mode : Lossless
      Title : 中英
   Text #4
      ID : 4
      Format : SSA
      Codec ID : S_TEXT/SSA
      Codec ID/Info : Sub Station Alpha
      Compression mode : Lossless
      Title : 英中
   Text #5
      ID : 5
      Format : UTF-8
      Codec ID : S_TEXT/UTF8
      Codec ID/Info : UTF-8 Plain Text
      Title : 中文
   Text #6
      ID : 6
      Format : UTF-8
      Codec ID : S_TEXT/UTF8
      Codec ID/Info : UTF-8 Plain Text
      Title : 英文




本帖隐藏的内容需要回复才可以浏览
分享到: 新浪微博新浪微博 QQ空间QQ空间 腾讯微博腾讯微博 腾讯朋友腾讯朋友

是沙发,怎么好久不更新了?

TOP

经典多谢
飞鸟娱乐 看看高清

TOP

这个版本的值得收藏,希望能快速更新~

TOP

等了好久,第一次那么近
飞鸟太NB了。因为强大而伟大,因为伟大而强大。

TOP

1# 豺狼帝国


好~~~~~~~~~~~~~~

TOP

谢谢分享~~第一次这么靠前~~

TOP

前排占座 不错的片子

TOP

好东西齐分享

TOP

谢谢~~~~~

TOP

返回列表