返回列表 发帖

谍影重重4部曲(国英双语) The.Bourne.I-IV.BluRay.720p.x264.AC3-WOFEI 中英字幕

修正了第一部后半部分字幕不同步的问题同时添加了第三部第四部国配对应的中文字幕


◎译  名 谍影重重/伯恩的身份
◎片  名 The Bourne Identity
◎年  代 2002
◎国  家 美国/德国/捷克
◎类  别 动作/冒险/神秘/惊悚
◎语  言 英语/普通话
◎字  幕 中英字幕/中文字幕/英中字幕/英文字幕
◎IMDB评分 7.7/10  97,327 votes
◎IMDB链接 http://www.imdb.com/title/tt0258463
◎文件格式 X264 + AC3
◎视频尺寸 1280 x 720
◎文件大小 1CD 2.73G
◎片  长 119MiN
◎导  演 道格·李曼 Doug Liman
◎主  演 马特·达蒙 Matt Damon .... Jason Bourne
      弗兰卡·波滕特 Franka Potente .... Marie Helena Kreutz
      克丽丝·库伯 Chris Cooper .... Alexander Conklin
      克莱夫·欧文 Clive Owen .... The Professor
      布赖恩·考克斯 Brian Cox .... Ward Abbott
      阿德沃尔·阿吉纽依-艾格拜吉 Adewale Akinnuoye-Agbaje .... Nykwana Wombosi
      加百利·曼恩 Gabriel Mann .... Danny Zorn
      Walt Goggins .... Research Tech
      Josh Hamilton .... Research Tech
      朱丽娅·斯蒂尔斯 Julia Stiles .... Nicky
      Orso Maria Guerrini .... Giancarlo
      Tim Dutton .... Eamon
      Denis Braccini .... Picot
      Nicky Naude .... Castel
      David Selburg .... Marshall

◎简  介 

著名作家罗伯特-勒德姆(Robert Ludlum)发表于1980年的《伯恩的身份》是国际畅销系列小说《伯恩》三部曲中的第一部,这部根据小说改编的惊悚悬念片主要刻画的是超级间谍贾森-伯恩(Jason Bourne)。  

在这个故事中,一位失忆的人(马特-戴蒙饰,Matt Damon)被一艘意大利渔船的人员从海上救起,已奄奄一息,而且他还发现自己正受到职业杀手的追杀。他已全然不知自己的身 份和来历,但是他在格斗中、谈吐间和自我防卫方面又显出不凡身手、过人气质,这表明着他有着十分危险复杂的经历。在一开始含有敌意的玛丽(Marie,弗兰卡-波坦特饰,Franka Potente)的协助下,他开始要努力弄明白自己究竟是谁,以及为什么几乎他遇到的每个人都要将他置于死地。  

在《伯恩的身份》一片中饰演角色的还有:克里斯-库珀(Chris Cooper,曾出演《美国丽人》“American Beauty”)、克莱夫-欧文(Clive Owen,曾出演《杀戮赌场》“Croupier”)、布赖恩-考克斯(Brian Cox,曾出演《拳击手》“The Boxer”)和阿德沃尔-阿吉纽依-艾格拜吉(Adewale Akinnuoye-Agbaje,曾出演《木乃伊归来》“The Mummy Returns”)。

E:\rmvb资源\[高清MKV收藏www.hdbird.com]\老鸟家园[bbs.hd62.com].谍影重重4部合集.720p.国英双语\谍影重重1 The.Bourne.Identity.2002.BluRay.720p.x264.AC3-WOFEI.mkv
   General
      Unique ID : 231868913741476686955754381001526902502 (0xAE705412FCC7D26ABD1341DB4C1C7EE6)
      Complete name : E:\rmvb资源\[高清MKV收藏www.hdbird.com]\老鸟家园[bbs.hd62.com].谍影重重4部合集.720p.国英双语\谍影重重1 The.Bourne.Identity.2002.BluRay.720p.x264.AC3-WOFEI.mkv
      Format : Matroska
      Format version : Version 2
      File size : 2.73 GiB
      Duration : 1h 58mn
      Overall bit rate : 3 301 Kbps
      Encoded date : UTC 2013-03-07 11:16:03
      Writing application : mkvmerge v3.4.0 ('Rapunzel') 编译于 May 15 2010 09:38:20
      Writing library : libebml v0.8.0 + libmatroska v0.9.0
   Video #1
      ID : 1
      Format : AVC
      Format/Info : Advanced Video Codec
      Format profile : High@L4.1
      Format settings, CABAC : Yes
      Format settings, ReFrames : 5 frames
      Codec ID : V_MPEG4/ISO/AVC
      Duration : 1h 58mn
      Bit rate : 2 403 Kbps
      Width : 1 280 pixels
      Height : 720 pixels
      Display aspect ratio : 16:9
      Frame rate : 23.976 fps
      Color space : YUV
      Chroma subsampling : 4:2:0
      Bit depth : 8 bits
      Scan type : Progressive
      Bits/(Pixel*Frame) : 0.109
      Stream size : 1.94 GiB (71%)
      Writing library : x264 core 116 r2074 2641b9e
      Encoding settings : cabac=1 / ref=5 / deblock=1:0:0 / analyse=0x3:0x113 / me=umh / subme=8 / psy=1 / psy_rd=1.00:0.00 / mixed_ref=1 / me_range=16 / chroma_me=1 / trellis=1 / 8x8dct=1 / cqm=0 / deadzone=21,11 / fast_pskip=1 / chroma_qp_offset=-2 / threads=12 / sliced_threads=0 / nr=0 / decimate=1 / interlaced=0 / bluray_compat=0 / constrained_intra=0 / bframes=3 / b_pyramid=0 / b_adapt=2 / b_bias=0 / direct=3 / weightb=1 / open_gop=0 / weightp=2 / keyint=250 / keyint_min=23 / scenecut=40 / intra_refresh=0 / rc_lookahead=50 / rc=2pass / mbtree=1 / bitrate=2403 / ratetol=1.0 / qcomp=0.60 / qpmin=10 / qpmax=51 / qpstep=4 / cplxblur=20.0 / qblur=0.5 / ip_ratio=1.40 / aq=1:1.00
   Audio #2
      ID : 2
      Format : AC-3
      Format/Info : Audio Coding 3
      Mode extension : CM (complete main)
      Codec ID : A_AC3
      Duration : 1h 58mn
      Bit rate mode : Constant
      Bit rate : 448 Kbps
      Channel(s) : 6 channels
      Channel positions : Front: L C R, Side: L R, LFE
      Sampling rate : 48.0 KHz
      Bit depth : 16 bits
      Compression mode : Lossy
      Stream size : 380 MiB (14%)
      Title : 英语
   Audio #3
      ID : 3
      Format : AC-3
      Format/Info : Audio Coding 3
      Mode extension : CM (complete main)
      Codec ID : A_AC3
      Duration : 1h 58mn
      Bit rate mode : Constant
      Bit rate : 448 Kbps
      Channel(s) : 6 channels
      Channel positions : Front: L C R, Side: L R, LFE
      Sampling rate : 48.0 KHz
      Bit depth : 16 bits
      Compression mode : Lossy
      Stream size : 380 MiB (14%)
      Title : 国语
   Text #4
      ID : 4
      Format : SSA
      Codec ID : S_TEXT/SSA
      Codec ID/Info : Sub Station Alpha
      Compression mode : Lossless
      Title : 中英
   Text #5
      ID : 5
      Format : SSA
      Codec ID : S_TEXT/SSA
      Codec ID/Info : Sub Station Alpha
      Compression mode : Lossless
      Title : 英中
   Text #6
      ID : 6
      Format : UTF-8
      Codec ID : S_TEXT/UTF8
      Codec ID/Info : UTF-8 Plain Text
      Title : 中文
   Text #7
      ID : 7
      Format : UTF-8
      Codec ID : S_TEXT/UTF8
      Codec ID/Info : UTF-8 Plain Text
      Title : 英文





◎译  名 谍影重重2/伯恩的身份2
◎片  名 The Bourne Supremacy
◎年  代 2004
◎国  家 美国/德国
◎类  别 动作/冒险/神秘/惊悚
◎语  言 英语/普通话
◎字  幕 中英字幕/中文字幕/英中字幕/英文字幕
◎IMDB评分 7.6/10  82,610 votes
◎IMDB链接 http://www.imdb.com/title/tt0372183
◎文件格式 X264 + AC3
◎视频尺寸 1280 x 720
◎文件大小 1CD 2.73G
◎片  长 108MiN
◎导  演 保罗·格林格拉斯 Paul Greengrass
◎主  演 马特·达蒙 Matt Damon .....Jason Bourne
      卡尔·厄本 Karl Urban .....Kirill
      弗兰卡·波坦特 Franka Potente .....Marie
      朱丽娅·斯蒂尔斯 Julia Stiles .....Nicky
      琼·艾伦 Joan Allen .....Pamela Landy
      马尔顿·索克斯 Marton Csokas .....Jarda
      米歇尔·莫娜汉 Michelle Monaghan .....Kim
      克里斯·库柏 Chris Cooper .....Conklin (uncredited)
      Gabriel Mann .....Danny Zorn
      Tom Gallop .....Tom Cronin
      John Bedford Lloyd .....Teddy
      Ethan Sandler .....Kurt
      凯勒·罗登 Karel Roden .....Gretkov
      Tomas Arana .....Martin Marshall
      Oksana Akinshina .....Irena Neski
      Marina Weis-Burgaslieva .....Mrs. Neski
      Tim Griffin .....John Nevins
      Sean Smith .....Vic
      Maxim Kovalevski .....Ivan
      Patrick Crowley .....Jack Weller

◎简  介 

经历第一集中的腥风血雨之后,伯恩(马特-达蒙 饰)终于找到了自己的身份,他就CIA特工大卫-韦伯,现在他和自己的女友化名隐身在一个偏僻遥远的海滨小镇,享受着两人世界的甜蜜和宁静。虽然伯恩不愿意回视过去,但“过去”却一直都在追随着他,他们不会让让这样的宁静保持下去,依靠职业养成的灵敏嗅觉,伯恩发现秘密组织的杀手已经潜入小镇,为了保护女友玛丽-克鲁兹(弗兰卡-波腾特 饰),他没有选择,必须战斗。
  是一起国际政治刺杀事件让CIA重新审视已经失踪的伯恩的档案,一名中国副总理被职业杀手刺杀,刺杀者留下的证据显示他的名字叫“杰森-伯恩”,这是大卫-韦伯从前在中央情报局的化名。于是大卫-韦伯不仅仅要防备秘密组织暗地里的追杀,还要避开时刻寻找他的CIA特工。在上一集中和伯恩并肩作战的尼科莱特(茱莉娅-斯蒂尔斯 饰)信任伯恩,但她发现自己也身陷困境,CIA的高层上司怀疑她与伯恩合谋,并且认定伯恩现在已经成为了他们的头号敌人。事态似乎变得越发失去控制,四面楚歌的“伯恩”现在只有单枪匹马地去找出那个冒充自己的人,洗刷自己和尼科莱特的清白…

E:\rmvb资源\[高清MKV收藏www.hdbird.com]\老鸟家园[bbs.hd62.com].谍影重重4部合集.720p.国英双语\谍影重重2 The.Bourne.Supremacy.2004.BluRay.720p.x264.AC3-WOFEI.mkv
   General
      Unique ID : 188943520876423552182064981595394214938 (0x8E2532CEA0A5CE6982FD4D429F810C1A)
      Complete name : E:\rmvb资源\[高清MKV收藏www.hdbird.com]\老鸟家园[bbs.hd62.com].谍影重重4部合集.720p.国英双语\谍影重重2 The.Bourne.Supremacy.2004.BluRay.720p.x264.AC3-WOFEI.mkv
      Format : Matroska
      Format version : Version 2
      File size : 2.73 GiB
      Duration : 1h 48mn
      Overall bit rate : 3 607 Kbps
      Encoded date : UTC 2013-03-07 11:32:17
      Writing application : mkvmerge v3.4.0 ('Rapunzel') 编译于 May 15 2010 09:38:20
      Writing library : libebml v0.8.0 + libmatroska v0.9.0
   Video #1
      ID : 1
      Format : AVC
      Format/Info : Advanced Video Codec
      Format profile : High@L4.1
      Format settings, CABAC : Yes
      Format settings, ReFrames : 5 frames
      Codec ID : V_MPEG4/ISO/AVC
      Duration : 1h 48mn
      Bit rate : 2 710 Kbps
      Width : 1 280 pixels
      Height : 720 pixels
      Display aspect ratio : 16:9
      Frame rate : 23.976 fps
      Color space : YUV
      Chroma subsampling : 4:2:0
      Bit depth : 8 bits
      Scan type : Progressive
      Bits/(Pixel*Frame) : 0.123
      Stream size : 2.00 GiB (73%)
      Writing library : x264 core 116 r2074 2641b9e
      Encoding settings : cabac=1 / ref=5 / deblock=1:0:0 / analyse=0x3:0x113 / me=umh / subme=8 / psy=1 / psy_rd=1.00:0.00 / mixed_ref=1 / me_range=16 / chroma_me=1 / trellis=1 / 8x8dct=1 / cqm=0 / deadzone=21,11 / fast_pskip=1 / chroma_qp_offset=-2 / threads=12 / sliced_threads=0 / nr=0 / decimate=1 / interlaced=0 / bluray_compat=0 / constrained_intra=0 / bframes=3 / b_pyramid=0 / b_adapt=2 / b_bias=0 / direct=3 / weightb=1 / open_gop=0 / weightp=2 / keyint=250 / keyint_min=23 / scenecut=40 / intra_refresh=0 / rc_lookahead=50 / rc=2pass / mbtree=1 / bitrate=2710 / ratetol=1.0 / qcomp=0.60 / qpmin=10 / qpmax=51 / qpstep=4 / cplxblur=20.0 / qblur=0.5 / ip_ratio=1.40 / aq=1:1.00
   Audio #2
      ID : 2
      Format : AC-3
      Format/Info : Audio Coding 3
      Mode extension : CM (complete main)
      Codec ID : A_AC3
      Duration : 1h 48mn
      Bit rate mode : Constant
      Bit rate : 448 Kbps
      Channel(s) : 6 channels
      Channel positions : Front: L C R, Side: L R, LFE
      Sampling rate : 48.0 KHz
      Bit depth : 16 bits
      Compression mode : Lossy
      Stream size : 348 MiB (12%)
      Title : 英语
   Audio #3
      ID : 3
      Format : AC-3
      Format/Info : Audio Coding 3
      Mode extension : CM (complete main)
      Codec ID : A_AC3
      Duration : 1h 48mn
      Bit rate mode : Constant
      Bit rate : 448 Kbps
      Channel(s) : 6 channels
      Channel positions : Front: L C R, Side: L R, LFE
      Sampling rate : 48.0 KHz
      Bit depth : 16 bits
      Compression mode : Lossy
      Stream size : 348 MiB (12%)
      Title : 国语
   Text #4
      ID : 4
      Format : SSA
      Codec ID : S_TEXT/SSA
      Codec ID/Info : Sub Station Alpha
      Compression mode : Lossless
      Title : 中英
   Text #5
      ID : 5
      Format : SSA
      Codec ID : S_TEXT/SSA
      Codec ID/Info : Sub Station Alpha
      Compression mode : Lossless
      Title : 英中
   Text #6
      ID : 6
      Format : UTF-8
      Codec ID : S_TEXT/UTF8
      Codec ID/Info : UTF-8 Plain Text
      Title : 中文
   Text #7
      ID : 7
      Format : UTF-8
      Codec ID : S_TEXT/UTF8
      Codec ID/Info : UTF-8 Plain Text
      Title : 英文






◎译  名 谍影重重3
◎片  名 The Bourne Ultimatum
◎年  代 2007
◎国  家 美国/德国
◎类  别 动作/冒险/神秘/惊悚
◎语  言 英语/普通话
◎字  幕 中英字幕/中文字幕/英中字幕/英文字幕
◎IMDB评分 8.2/10 (98,078 votes)Top 250: #145
◎IMDB链接 http://www.imdb.com/title/tt0440963
◎文件格式 X264 + AC3
◎视频尺寸 1280 x 720
◎文件大小 1CD 2.73G
◎片  长 115MiN
◎导  演 保罗·格林格拉斯 Paul Greengrass
◎主  演 马特·达蒙/马特·戴蒙 Matt Damon  ....  Jason Bourne
      朱丽娅·斯蒂尔斯 Julia Stiles  ....  Nicky Parsons
      大卫·斯特雷泽恩 David Strathairn  ....  CIA Deputy Director Noah Vosen
      斯科特·格伦 Scott Glenn  ....  CIA Director Ezra Kramer
      帕迪·康斯戴恩 Paddy Considine  ....  Simon Ross
      埃德加·拉米雷兹 Edgar Ramirez  ....  Paz
      阿尔伯特·芬尼 Albert Finney  ....  Dr. Albert Hirsch
      琼·艾伦 Joan Allen  ....  Pamela Landy
      Tom Gallop  ....  Tom Cronin
      Corey Johnson  ....  Wills
      丹尼尔·布鲁赫 Daniel Brühl  ....  Martin Kreutz
      Joey Ansah  ....  Desh Bouksani
      Colin Stinton  ....  Neal Daniels
      Daniel Fredenburgh  ....  Jimmy
      Lucy Liemann  ....  Lucy
      Bryan Reents  ....  Technician
      Arkie Reece  ....  Technician
      John Roberson  ....  Technician
      Russ Huard  ....  Technician
      Mark Bazeley  ....  Betancourt

◎简  介 

剧情:
  他是一个没有国籍、没有身份、没有过去的人,他的一切都开始于意大利的地中海海岸--那是他被发现的地方,漂浮在海面上,昏迷着。后来他知道自己叫杰森·伯恩,曾经受到过非常严酷的训练,但是,他想不起来是谁把自己变成了现在这个深奥微妙的人体武器。于是,他不顾一切地想知道自己的过去,是谁教会了他这一身杀人的本领?
  遇到玛丽之后,伯恩发现自己变了,他不再执着于寻找过去,虽然他经常被记忆的零星片断所惊醒,但从玛丽身上,他总是能够找到安宁。然而,玛丽却死在了杀手的子弹之下,愤怒的伯恩开始了疯狂的复仇,因为他所渴望的一切--玛丽,已经永远地消失了。他不再想知道自己是谁,只想永远地忘记那些肯定会让他不堪回首的记忆。然而,伦敦一份报纸的头版头条报道了一个故事,推测出了他的存在,他美好的愿望结束了,伯恩发现自己再一次成了暗杀的目标。
  “踏石”是一个高度机密的黑色特工计划,专门培养超级杀手--伯恩就是这项研究的一个“成果”。不过,由于伯恩的失踪,“踏石”计划宣告失败,同时被一个由美国国防部负责的新计划“黑烟斗”所取代,他们培养出了新一代训练有素的杀手,他们隐姓埋名地生活在国内乃至国外的各个角落,等待ZF需要的时候随时接受差遣。对于他们来说,伯恩的存在是ZF潜在的一个最大的威胁,必须坚决铲除掉,同时,伯恩这个名字还值3千万美金的酬劳。可是对于伯恩来说,这些杀手也只是他想拼命忘记的记忆中的一部分而已。
  伯恩的双手已经触碰到了真相,这一次,他不会再因为前任老板那空洞的许诺而踌躇不前,他要跟那些创造了“杰森·伯恩”的人,为一切做一个了解。
  伯恩的主动追击让他天南海北地跑着,他到过莫斯科、马德里、巴黎,也在伦敦和丹吉尔做过停留,寻找真相的同时,还要躲避更加机智的“黑烟斗”杀手、联邦特工和当地警察的三重围捕,伯恩发现自己每前进一步,那些困扰着他的疑问就会得到一个答案。最终,他那充满艰难的行程把他带到了一切开始的地方--纽约,在那里,有关伯恩的所有谜团,都会得到圆满的了结。

E:\rmvb资源\[高清MKV收藏www.hdbird.com]\老鸟家园[bbs.hd62.com].谍影重重4部合集.720p.国英双语\谍影重重3 The.Bourne.Ultimatum.2007.BluRay.720p.x264.AC3-WOFEI.mkv
   General
      Unique ID : 195902948212799128149998363889908350431 (0x9361891100773DB29E79E22572C47DDF)
      Complete name : E:\rmvb资源\[高清MKV收藏www.hdbird.com]\老鸟家园[bbs.hd62.com].谍影重重4部合集.720p.国英双语\谍影重重3 The.Bourne.Ultimatum.2007.BluRay.720p.x264.AC3-WOFEI.mkv
      Format : Matroska
      Format version : Version 2
      File size : 2.73 GiB
      Duration : 1h 55mn
      Overall bit rate : 3 397 Kbps
      Encoded date : UTC 2013-03-07 11:39:35
      Writing application : mkvmerge v3.4.0 ('Rapunzel') 编译于 May 15 2010 09:38:20
      Writing library : libebml v0.8.0 + libmatroska v0.9.0
   Video #1
      ID : 1
      Format : AVC
      Format/Info : Advanced Video Codec
      Format profile : High@L4.1
      Format settings, CABAC : Yes
      Format settings, ReFrames : 5 frames
      Codec ID : V_MPEG4/ISO/AVC
      Duration : 1h 55mn
      Bit rate : 2 500 Kbps
      Width : 1 280 pixels
      Height : 720 pixels
      Display aspect ratio : 16:9
      Frame rate : 23.976 fps
      Color space : YUV
      Chroma subsampling : 4:2:0
      Bit depth : 8 bits
      Scan type : Progressive
      Bits/(Pixel*Frame) : 0.113
      Stream size : 1.96 GiB (72%)
      Writing library : x264 core 116 r2074 2641b9e
      Encoding settings : cabac=1 / ref=5 / deblock=1:0:0 / analyse=0x3:0x113 / me=umh / subme=8 / psy=1 / psy_rd=1.00:0.00 / mixed_ref=1 / me_range=16 / chroma_me=1 / trellis=1 / 8x8dct=1 / cqm=0 / deadzone=21,11 / fast_pskip=1 / chroma_qp_offset=-2 / threads=12 / sliced_threads=0 / nr=0 / decimate=1 / interlaced=0 / bluray_compat=0 / constrained_intra=0 / bframes=3 / b_pyramid=0 / b_adapt=2 / b_bias=0 / direct=3 / weightb=1 / open_gop=0 / weightp=2 / keyint=250 / keyint_min=23 / scenecut=40 / intra_refresh=0 / rc_lookahead=50 / rc=2pass / mbtree=1 / bitrate=2500 / ratetol=1.0 / qcomp=0.60 / qpmin=10 / qpmax=51 / qpstep=4 / cplxblur=20.0 / qblur=0.5 / ip_ratio=1.40 / aq=1:1.00
   Audio #2
      ID : 2
      Format : AC-3
      Format/Info : Audio Coding 3
      Mode extension : CM (complete main)
      Codec ID : A_AC3
      Duration : 1h 55mn
      Bit rate mode : Constant
      Bit rate : 448 Kbps
      Channel(s) : 6 channels
      Channel positions : Front: L C R, Side: L R, LFE
      Sampling rate : 48.0 KHz
      Bit depth : 16 bits
      Compression mode : Lossy
      Stream size : 369 MiB (13%)
      Title : 英语
   Audio #3
      ID : 3
      Format : AC-3
      Format/Info : Audio Coding 3
      Mode extension : CM (complete main)
      Codec ID : A_AC3
      Duration : 1h 55mn
      Bit rate mode : Constant
      Bit rate : 448 Kbps
      Channel(s) : 6 channels
      Channel positions : Front: L C R, Side: L R, LFE
      Sampling rate : 48.0 KHz
      Bit depth : 16 bits
      Compression mode : Lossy
      Stream size : 369 MiB (13%)
      Title : 国语
   Text #4
      ID : 4
      Format : SSA
      Codec ID : S_TEXT/SSA
      Codec ID/Info : Sub Station Alpha
      Compression mode : Lossless
      Title : 中英
   Text #5
      ID : 5
      Format : SSA
      Codec ID : S_TEXT/SSA
      Codec ID/Info : Sub Station Alpha
      Compression mode : Lossless
      Title : 英中
   Text #6
      ID : 6
      Format : UTF-8
      Codec ID : S_TEXT/UTF8
      Codec ID/Info : UTF-8 Plain Text
      Title : 中文
   Text #7
      ID : 7
      Format : UTF-8
      Codec ID : S_TEXT/UTF8
      Codec ID/Info : UTF-8 Plain Text
      Title : 英文






◎译  名 谍影重重4/神鬼认证4(台)/叛谍追击4:机密逃杀(港)
◎片  名 The Bourne Legacy
◎年  代 2012
◎国  家 美国
◎类  别 动作 冒险 悬疑 惊悚
◎语  言 英语
◎字  幕 中英字幕/中文字幕/英中字幕/英文字幕
◎I M D B   http://bbs.hd62.com/forum-132-1.html
◎评    分  6.9/10 from 46,465 users
◎文件格式 x264 + AC3
◎视频尺寸 1280 x 720
◎文件大小 1CD 2.73G
◎片  长 135 Mins
◎导  演 托尼·吉尔罗伊
◎主  演 杰瑞米·雷纳 Jeremy Renner  ....Aaron Cross
                  爱德华·诺顿 Edward Norton  ....Retired Col. Eric Byer, USAF
                  蕾切尔·薇姿 Rachel Weisz  ....Dr. Marta Shearing
                  阿尔伯特·芬尼 Albert Finney  ....Dr. Albert Hirsch
                  琼·艾伦 Joan Allen  ....Pam Landy
                  奥斯卡·伊萨克 Oscar Isaac  ....Outcome #3
                  唐娜·墨菲 Donna Murphy  ....Dita Mandy
                  斯科特·格林 Scott Glenn  ....Ezra Kramer
                  大卫·斯特雷泽恩 David Strathairn  ....Noah Vosen
                  斯泰西·基齐 Stacy Keach  ....Retired Adm. Mark Turso, USN
                  Michael Chernus  ....Arthur Ingram
                  寇瑞·斯托尔 Corey Stoll  ....Zev Vendel
                  伊丽莎白·马弗尔 Elizabeth Marvel  ....Dr. Connie Dowd
                  希娜·柯莱特 Sheena Colette  ....Candent Woman #2 (uncredited)
                  丹尼斯·伯特斯卡瑞斯 Dennis Boutsikaris  ....Terrence Ward
                  迈克尔·帕帕约翰 Michael Papajohn  ....Larry
                  克里·约翰逊 Corey Johnson  ....Ray Wills
      
简  介 

  因为前面的任务完全失败,并且在公众中造成了极坏的影响,所以ZF决定停止所有的CIA的秘密行动和培训计划,这里就包括一个叫做“结果行动”的行动。这个行动是CIA在“触石行动”失败后,重新开展的一个培训秘密杀手的行动,两者之间有着千丝万缕的联系。
  不过,如今CIA要关闭“结果行动”,他们的做法非常血腥--对仍对该计划念念不忘,并且掌握某些“特殊材料”的设计者和特工斩尽杀绝。这其中就有特工艾伦·克洛世和史蒂芬妮·幸德博士。他们要设法逃出CIA的监控,并躲开特工拜耶的追杀。
  于是,一场猫和老鼠较量的好戏就此上演……

幕后制作


     《谍影重重4》由前三部《谍影重重》的编剧托尼·吉尔罗伊执导,英文片名为“伯恩的遗产”(The Bourne Legacy),这是一个全新的故事,不会有前三部的主角杰森·伯恩。托尼·吉尔罗伊称“这部电影既不是重拍,也不是续拍或前传,没人能代替马特· 达蒙,新一集里将会有一个全新的英雄,开启全新篇章,这是个独立的计划”,这位导演还表示“杰森·伯恩将不会出现在这部影片中,但他仍然活着。前三部的故事是新一集的导火线,新片中会有一个更大的格局和阴谋”。



  全新的男主角

  在很多影迷的心中,看《谍影重重》就是在看马特·达蒙的表演。这位杰出的演员,已经赋予了这套新时代的动作片一种新的活力。所以,当环球影业决定开拍一部没有达蒙和他的伯恩的《谍影重重》的时候,每个人都捏了一把汗。而这其中最首当其冲的,就是扮演新主角的杰瑞米·雷纳。虽然在不久前上映的《碟中谍4》中,他出演动作片的能力已经被全世界影迷所认可,但是要PK达蒙的伯恩,影迷并不放心。对于此,雷纳说:“并不需要把我的角色和达蒙做比较,因为我和他扮演的是两个背景、两个模式的人。我没有忘记自己的身份,也没有在寻找自己的过去。在开拍前,我见了达蒙一面,他给了我很多的建议。他让我在片场按照导演和动作设计师的执导来做,也让我慢慢地一步一步地走进电影,走入人物的内心。除了导演之外,影片的很多工作人员都参与拍摄了这部电影的拍摄,尤其是动作设计师丹·布拉德利。他执导了前三部电影的动作场面,在这部电影中我依然和他合作。他为我设计了一些完全不同的动作戏份,就是要区别开我和达蒙。达蒙告诉我,要相信这些人在片场做的一切,我按照他的话做了。我很信任这些工作人员,他们的工作很棒,的确是值得信赖的。”

  谈到影片与前作的关联,导演托尼·吉尔罗伊说:“这是一部全新的影片,我们有一个新的演员还有一个新的故事。达蒙在整个故事序列中并没有死亡,只是没有出现而已。因为他的故事已经算是结束了。如果这个系列想要再继续延展下去,那就一定要有新的内容来填充。并不是说没有伯恩,《谍影重重》系列就难以为继,重要的是我们怎么展开这个故事。怎么把这个故事讲述的令人信服。拉斯贝德写了一个漂亮的故事,很圆满地把故事从伯恩的身上转移了下来。我想,如果有可能的话,我会在下一集里让伯恩重新出现。”

  更刺激的特工故事

  《谍影重重4》的开拍经历了重重困难,环球公司之所以同意这部电影的开拍,是因为首先《谍影重重》系列是一个金矿,其次新的、更为宏大和惊险的故事很可能会让这套电影成为常青树。环球私下里的想法是,把《谍影重重》拍摄成007式的系列电影。所以,他们对《谍影重重4》所投入的精力不容小觑。

  关于影片的故事和场面,托尼·吉尔罗伊显得自信十足。他说:“你觉得你看到了很多东西么?其实不是的。如果你觉得前三集的《谍影重重》就已经把故事说尽了,那就错了。在这部电影里,我们将会为影片撰写一个更大规模,更风趣、更有看点的故事。前面的故事里提到的触石行动,并不仅仅是整个影片所架构出来的世界中唯一一个存在黑问题的行动。在这部电影中,将会有更大的秘密和黑暗的事件被揭露出来。所以,可以说,影片并不是伯恩故事的继续,而是另一个发生在同一个世界里的新的故事。为了拍摄这部电影,我们把故事设定得更大、更刺激、更令人激动、更有看点。我们找来了很多前三部《谍影重重》的工作人员继续在影片中工作,目的就是为了维持一种在影片最终效果上的连续性。无论是故事风格、人物设置还是剧情方面,这部电影都是‘加强版的伯恩’。”

  而谈及影片的拍摄,吉尔罗伊说:“整个拍摄过程非常有趣,剧组成员都很轻松。因为我们有了很多的经验,加之雷纳也为这部电影做了很多的准备,所以开拍之后没有遇到太多的问题,我们很流畅地就按照剧本的情节拍摄完了影片。”对于拍摄,雷纳说:“达蒙让我相信工作人员,我照做了。现在看起来,效果很好。因为这些共组人员知道自己要的结果是什么。在这样的影片中,场面、情节和导演的表述是最重要的,而人物的性格则不是那么重要,所以按照导演和动作指导的要求来做,是最保险的事情。”

E:\rmvb资源\[高清MKV收藏www.hdbird.com]\老鸟家园[bbs.hd62.com].谍影重重4部合集.720p.国英双语\谍影重重4 The.Bourne.Legacy.2012.BluRay.720p.x264.AC3-WOFEI.mkv
   General
      Unique ID : 206266177737414732329296269890770336179 (0x9B2D6BBAFB8E65F4ACDFEC6C940679B3)
      Complete name : E:\rmvb资源\[高清MKV收藏www.hdbird.com]\老鸟家园[bbs.hd62.com].谍影重重4部合集.720p.国英双语\谍影重重4 The.Bourne.Legacy.2012.BluRay.720p.x264.AC3-WOFEI.mkv
      Format : Matroska
      Format version : Version 2
      File size : 2.73 GiB
      Duration : 2h 15mn
      Overall bit rate : 2 898 Kbps
      Encoded date : UTC 2013-03-08 01:07:21
      Writing application : mkvmerge v3.4.0 ('Rapunzel') 编译于 May 15 2010 09:38:20
      Writing library : libebml v0.8.0 + libmatroska v0.9.0
   Video #1
      ID : 1
      Format : AVC
      Format/Info : Advanced Video Codec
      Format profile : High@L4.1
      Format settings, CABAC : Yes
      Format settings, ReFrames : 5 frames
      Codec ID : V_MPEG4/ISO/AVC
      Duration : 2h 15mn
      Bit rate : 2 001 Kbps
      Width : 1 280 pixels
      Height : 720 pixels
      Display aspect ratio : 16:9
      Frame rate : 23.976 fps
      Color space : YUV
      Chroma subsampling : 4:2:0
      Bit depth : 8 bits
      Scan type : Progressive
      Bits/(Pixel*Frame) : 0.091
      Stream size : 1.83 GiB (67%)
      Writing library : x264 core 116 r2074 2641b9e
      Encoding settings : cabac=1 / ref=5 / deblock=1:0:0 / analyse=0x3:0x113 / me=umh / subme=8 / psy=1 / psy_rd=1.00:0.00 / mixed_ref=1 / me_range=16 / chroma_me=1 / trellis=1 / 8x8dct=1 / cqm=0 / deadzone=21,11 / fast_pskip=1 / chroma_qp_offset=-2 / threads=12 / sliced_threads=0 / nr=0 / decimate=1 / interlaced=0 / bluray_compat=0 / constrained_intra=0 / bframes=3 / b_pyramid=0 / b_adapt=2 / b_bias=0 / direct=3 / weightb=1 / open_gop=0 / weightp=2 / keyint=250 / keyint_min=23 / scenecut=40 / intra_refresh=0 / rc_lookahead=50 / rc=2pass / mbtree=1 / bitrate=2001 / ratetol=1.0 / qcomp=0.60 / qpmin=10 / qpmax=51 / qpstep=4 / cplxblur=20.0 / qblur=0.5 / ip_ratio=1.40 / aq=1:1.00
   Audio #2
      ID : 2
      Format : AC-3
      Format/Info : Audio Coding 3
      Mode extension : CM (complete main)
      Codec ID : A_AC3
      Duration : 2h 15mn
      Bit rate mode : Constant
      Bit rate : 448 Kbps
      Channel(s) : 6 channels
      Channel positions : Front: L C R, Side: L R, LFE
      Sampling rate : 48.0 KHz
      Bit depth : 16 bits
      Compression mode : Lossy
      Stream size : 433 MiB (15%)
      Title : 英语
   Audio #3
      ID : 3
      Format : AC-3
      Format/Info : Audio Coding 3
      Mode extension : CM (complete main)
      Codec ID : A_AC3
      Duration : 2h 15mn
      Bit rate mode : Constant
      Bit rate : 448 Kbps
      Channel(s) : 6 channels
      Channel positions : Front: L C R, Side: L R, LFE
      Sampling rate : 48.0 KHz
      Bit depth : 16 bits
      Compression mode : Lossy
      Stream size : 433 MiB (15%)
      Title : 国语
   Text #4
      ID : 4
      Format : SSA
      Codec ID : S_TEXT/SSA
      Codec ID/Info : Sub Station Alpha
      Compression mode : Lossless
      Title : 中英
   Text #5
      ID : 5
      Format : SSA
      Codec ID : S_TEXT/SSA
      Codec ID/Info : Sub Station Alpha
      Compression mode : Lossless
      Title : 英中
   Text #6
      ID : 6
      Format : UTF-8
      Codec ID : S_TEXT/UTF8
      Codec ID/Info : UTF-8 Plain Text
      Title : 中文
   Text #7
      ID : 7
      Format : UTF-8
      Codec ID : S_TEXT/UTF8
      Codec ID/Info : UTF-8 Plain Text
      Title : 英文



因文件比较大 之前已经下载的童鞋可以直接下载第一部的字幕

[attach]416467[/attach]

本帖隐藏的内容需要回复才可以浏览
收藏 分享

谢谢!

TOP

这个合集非常喜欢,看偶的头像就知道了,感谢浪子啊

TOP

必须顶啊   感谢伟大的楼主

TOP

谢谢!

TOP

1# 痴情浪子

没办法,重新下,谢谢。
现在喜欢娱乐啦!

TOP

支持,,,,,,
懂得更多做得更好,做得更好才能强于别人。

TOP

没想到能进前十啊

TOP

经典的啦   多谢分享

TOP

没办法,重新下

TOP

返回列表