返回列表 发帖

被解放的姜戈 Django.Unchained.2012.BluRay.720p.x264.AC3-WOFEI 中英字幕



◎译  名 被解救的姜戈/黑杀令/决杀令/被解放的迪亚戈/被解放的姜戈/铁血枷锁/解放的詹哥/奔放的强哥/强哥好强
◎片  名 Django Unchained
◎年  代 2012
◎国  家 美国
◎类  别 冒险/犯罪/剧情/西部
◎语  言 英语
◎字  幕 中英字幕/中文字幕/英中字幕/英文字幕
◎IMDB评分 8.6/10 from 261,051 users
◎IMDB链接 http://bbs.hd62.com/forum-30-1.html
◎文件格式 X264 + AC3
◎视频尺寸 1280 x 720
◎文件大小 1CD 3.42GB
◎片  长 165 Min
◎导  演 昆汀·塔伦蒂诺 Quentin Tarantino
◎主  演  杰米·福克斯 Jamie Foxx  ....姜戈 Django
      克里斯托弗·瓦尔兹 Christoph Waltz  ....金·舒尔茨 Dr. King Schultz
      莱昂纳多·迪卡普里奥 Leonardo DiCaprio  ....卡尔文·坎迪 Calvin Candie
      凯丽·华盛顿 Kerry Washington  ....布隆希达 Broomhilda
      塞缪尔·杰克逊 Samuel L. Jackson  ....史蒂芬 Stephen
      沃特·戈金斯 Walt Goggins  ....Billy Crash
      丹尼斯·克里斯托弗 Dennis Christopher  ....Leonide Moguy
      詹姆斯·瑞马尔 James Remar  ....Butch Pooch / Ace Speck
      David Steen  ....Mr. Stonesipher
      Dana Michelle Gourrier  ....Cora (as Dana Gourrier)
      Nichole Mercedes Robinson  ....Sheba
      劳拉·凯洛蒂 Laura Cayouette  ....Lara Lee Candie-Fitzwilly
      Ato Essandoh  ....D'Artagnan
      Sammi Rotibi  ....Rodney
      Clay Donahue Fontenot
      Escalante Lundy  ....Big Fred
      Miriam F. Glover  ....Betina
      唐·约翰逊 Don Johnson  ....Big Daddy
      弗兰科·尼罗 Franco Nero  ....Bar Patron
      詹姆斯·拉索 James Russo  ....Dicky Speck
      汤姆·沃帕特 Tom Wopat  ....U.S. Marshall Gill Tatum
      唐·司徒奥德 Don Stroud  ....Sheriff Bill Sharp
      鲁斯·谭柏林 Russ Tamblyn  ....Son of a Gunfighter
      爱波·塔布琳 Amber Tamblyn  ....Daughter of a Son of a Gunfighter
      布鲁斯·邓恩 Bruce Dern  ....Old Man Carrucan
      M·C·金内 M.C. Gainey  ....Big John Brittle
      Cooper Huckabee  ....Lil Raj Brittle
      Doc Duhame  ....Ellis Brittle
      乔纳·希尔 Jonah Hill  ....Bag Head #2
      Lee Horsley  ....Sheriff Gus (Snowy Snow)
      佐伊·贝尔 Zoe Bell  ....Tracker
      Michael Bowen  ....Tracker
      Jake Garber  ....Tracker
      泰德·尼利 Ted Neeley  ....Tracker
      James Parks  ....Tracker
      汤姆·萨维尼 Tom Savini  ....Tracker
      迈克尔·帕克斯 Michael Parks  ....The LeQuint Dickey Mining Co. Employee
      约翰·贾瑞特 John Jarratt  ....The LeQuint Dickey Mining Co. Employee
      昆汀·塔伦蒂诺 Quentin Tarantino  ....The LeQuint Dickey Mining Co. Employee
      埃里克·布朗 Edrick Browne  ....Joshua
      Todd Allen  ....Dollar Bill (uncredited)
      Monica Rene'e Anderson  ....House Servant (uncredited)
      Deborah Ayorinde  ....Cleopatra Pony (uncredited)
      迈克尔·巴考尔 Michael Bacall  ....Smitty Bacall (uncredited)
      Carl Bailey  ....Mandingo Overseer (uncredited)
      耐德·巴拉米 Ned Bellamy  ....Wilson (uncredited)
      克里斯托弗·贝瑞 Christopher Berry  ....Willard (uncredited)
      罗伯特·卡拉丁 Robert Carradine  ....Tracker Lex (uncredited)
      盖里·格拉伯斯 Gary Grubbs  ....Bob Gibbs (uncredited)
      里奇·蒙哥马利 Ritchie Montgomery  ....Overseer Johnny Jerome (uncredited)
      米丝蒂·阿哈姆 Misty Upham  ....Minnie (uncredited)
      格伦·沃纳 Glen Warner  ....Slave Overseer (uncredited)
      

◎简  介 

    本片是一儒部意大利式的钙通心粉西部片。从片名看效,本片很明显是在向意大利西部片的经典制作《姜戈》致敬。故事中,主人公姜戈是一名获得了自由的奴隶,他在一名德国裔的赏金猎人的指导下成为一名彪悍的、逍遥自在的赏金猎人。他协助那个德国赏金猎人缉拿各种通缉犯以换取报酬,在其帮助下追寻自己的奴隶妻子并试图将她从邪恶的大农场主加尔文·坎迪(Calvin Candie)手里解救出来。

  故事发生在美国内战的前两年,获得自由的黑奴姜戈(Django, 杰米·福克斯 饰)为了从施虐成性却富有魅力的亲法农场主卡尔文·坎迪(Calvin Candie, 莱昂纳多·迪卡普里奥 饰)手中解救自己的妻子布隆希达(Broomhilda, 凯丽·华盛顿 饰),他与一名牙医出身的德国赏金猎人金·舒尔茨(Dr. King Schultz, 克里斯托弗·瓦尔兹 饰)联手,徒步穿越美国踏上了寻妻之路。
  期间二人将面对坎迪手下--训练奴隶的艾斯·伍迪和其最信赖的奴隶史蒂芬(Stephen, 塞缪尔·杰克逊饰)--的阴险伎俩。为了生存,是同仇敌忾还是各自为战,救出布隆希达的他们必须做出抉择……

  故事设定在美国南部,时间则是内战爆发的两年前,杰米·福克斯饰演姜戈,作为一名奴隶,他与以前的主人们有着非常残暴、冷酷的历史,但正是这样的经历,让他结识了来自于德国的赏金猎人金·舒尔茨医生(克里斯托弗·沃尔茨饰)。舒尔茨正在追捕凶残的布利特尔兄弟,只有姜戈才能帮他顺利地领取到高额的赏金。于是舒尔茨承诺姜戈,只要他肯协助自己抓到逃犯,不管死活,他都会让他摆脱奴隶的身份,获得真正的自由。
  舒尔茨成功地解放了姜戈,但是两个人并没有选择分道扬镳。相反,舒尔茨带着姜戈,去搜捕南部一伙罪孽深重的通缉犯。学习至关重要的抓捕和跟踪技巧的同时,姜戈一直都没有忘记自己真正的目的,那就是找到并解救布鲁姆希达(凯丽·华盛顿饰),他在很多年前的奴隶交易中失散的妻子。 
  姜戈和舒尔茨的搜寻最终集中在了加尔文·坎迪(获莱昂纳多·迪卡普里奥饰)身上,他是"糖果农场"的所有者,那里是一个臭名昭著的种植园。假借名义探索错综复杂的谜团,姜戈和舒尔茨不可避免地引起了坎迪最忠诚的家奴斯蒂芬(塞缪尔·杰克逊饰)的怀疑。他们的行动明显,而且一个阴险的组织已经把他们包围了起来。如果姜戈和舒尔茨想要带着布鲁姆希达一起逃跑的话,他们不得不在各自为战和团结一致,牺牲和幸存之间做出选择。

E:\rmvb资源\[高清MKV收藏www.hdbird.com]\老鸟家园[bbs.hd62.com].被解放的姜戈.720p.中英字幕\被解放的姜戈 Django.Unchained.2012.BluRay.720p.x264.AC3-WOFEI.mkv
   General
      Unique ID : 172817902029709996486064679403358725325 (0x8203846A2308A3BD94657E85B8D324CD)
      Complete name : E:\rmvb资源\[高清MKV收藏www.hdbird.com]\老鸟家园[bbs.hd62.com].被解放的姜戈.720p.中英字幕\被解放的姜戈 Django.Unchained.2012.BluRay.720p.x264.AC3-WOFEI.mkv
      Format : Matroska
      Format version : Version 2
      File size : 3.42 GiB
      Duration : 2h 45mn
      Overall bit rate : 2 958 Kbps
      Encoded date : UTC 2013-04-01 14:04:08
      Writing application : mkvmerge v3.4.0 ('Rapunzel') 编译于 May 15 2010 09:38:20
      Writing library : libebml v0.8.0 + libmatroska v0.9.0
   Video #1
      ID : 1
      Format : AVC
      Format/Info : Advanced Video Codec
      Format profile : High@L4.1
      Format settings, CABAC : Yes
      Format settings, ReFrames : 5 frames
      Codec ID : V_MPEG4/ISO/AVC
      Duration : 2h 45mn
      Bit rate : 2 508 Kbps
      Width : 1 280 pixels
      Height : 720 pixels
      Display aspect ratio : 16:9
      Frame rate : 23.976 fps
      Color space : YUV
      Chroma subsampling : 4:2:0
      Bit depth : 8 bits
      Scan type : Progressive
      Bits/(Pixel*Frame) : 0.114
      Stream size : 2.83 GiB (83%)
      Writing library : x264 core 116 r2074 2641b9e
      Encoding settings : cabac=1 / ref=5 / deblock=1:0:0 / analyse=0x3:0x113 / me=umh / subme=8 / psy=1 / psy_rd=1.00:0.00 / mixed_ref=1 / me_range=16 / chroma_me=1 / trellis=1 / 8x8dct=1 / cqm=0 / deadzone=21,11 / fast_pskip=1 / chroma_qp_offset=-2 / threads=12 / sliced_threads=0 / nr=0 / decimate=1 / interlaced=0 / bluray_compat=0 / constrained_intra=0 / bframes=3 / b_pyramid=0 / b_adapt=2 / b_bias=0 / direct=3 / weightb=1 / open_gop=0 / weightp=2 / keyint=250 / keyint_min=23 / scenecut=40 / intra_refresh=0 / rc_lookahead=50 / rc=2pass / mbtree=1 / bitrate=2508 / ratetol=1.0 / qcomp=0.60 / qpmin=10 / qpmax=51 / qpstep=4 / cplxblur=20.0 / qblur=0.5 / ip_ratio=1.40 / aq=1:1.00
   Audio #2
      ID : 2
      Format : AC-3
      Format/Info : Audio Coding 3
      Mode extension : CM (complete main)
      Codec ID : A_AC3
      Duration : 2h 45mn
      Bit rate mode : Constant
      Bit rate : 448 Kbps
      Channel(s) : 6 channels
      Channel positions : Front: L C R, Side: L R, LFE
      Sampling rate : 48.0 KHz
      Bit depth : 16 bits
      Compression mode : Lossy
      Stream size : 530 MiB (15%)
   Text #3
      ID : 3
      Format : SSA
      Codec ID : S_TEXT/SSA
      Codec ID/Info : Sub Station Alpha
      Compression mode : Lossless
      Title : 中英
   Text #4
      ID : 4
      Format : SSA
      Codec ID : S_TEXT/SSA
      Codec ID/Info : Sub Station Alpha
      Compression mode : Lossless
      Title : 英中
   Text #5
      ID : 5
      Format : UTF-8
      Codec ID : S_TEXT/UTF8
      Codec ID/Info : UTF-8 Plain Text
      Title : 中文
   Text #6
      ID : 6
      Format : UTF-8
      Codec ID : S_TEXT/UTF8
      Codec ID/Info : UTF-8 Plain Text
      Title : 英文




本帖隐藏的内容需要回复才可以浏览
分享到: 新浪微博新浪微博 QQ空间QQ空间 腾讯微博腾讯微博 腾讯朋友腾讯朋友

1# 大漠雄鹰 [/b评分
评分这么高 必须看!

TOP

谢谢~~~~~~~~~~~~~~~~~~

TOP

thks for sharing

TOP

謝謝分享~!!

TOP

谢谢分享

TOP

tks for sharing this one

TOP

tks for sharing this one

TOP

看来 这是一部不错的片子 感谢 下来看看

TOP

这片子评分很高的啊

TOP

返回列表