返回列表 发帖

一代宗师 The.Grandmaster.2013.BluRay.720p.x264.AC3-WOFEI 国粤双语



◎译  名 一代宗師/一代宗师
◎片  名 First Generation Master / Yi Dai Zong Shi / Yut Doi Jung Si
◎年  代 2013
◎国  家 中国香港/中国
◎类  别 动作/剧情/传记
◎语  言 普通话/粤语
◎字  幕 中文
◎IMDB评分 7.3/10 from 1,117 users
◎IMDB链接 http://bbs.hd62.com/forum-30-1.html
◎文件格式 X264 + AC3
◎视频尺寸 1280 x 720
◎文件大小 1CD 2.85GB
◎片  长 02:06:57
◎导  演 王家卫  Kar Wai Wong
◎主  演 梁朝伟 Tony Leung  ....叶问 Ip Man
                   章子怡 Ziyi Zhang  ....宫二先生(宫若梅)
                   张震 Zhen Zhang  ....一线天
                   宋慧乔 Hye-gyo Song  ....张永成(叶问之妻)
                   王庆祥 Qingxiang Wang  ....宫羽田
                   张晋 Max Zhang  ....马三
                   尚铁龙 Tielong Shang  ....老姜
                   赵本山 Benshan Zhao  ....丁连山(关东之鬼)
                   小沈阳 Yang Shen  ....三江水
                   卢海鹏 Hoi-Pang Lo  ....灯叔
                   黎烈弓 Cung Le  ....铁鞋七
                   刘洵 Shun Lau  ....先生瑞



◎简       介



      广东佛山人叶问(梁朝伟饰),年少时家境优渥,师从咏春拳第三代传人陈华顺学习拳法,师傅“一条腰带一口气”的告诫,支持他走过兵荒马乱、朝代更迭的混乱年代。妻子张永成(宋慧乔饰)泼辣干练,二人夫唱妇随,琴瑟合壁。1936年,佛山武术界乱云激荡。八卦拳宗师宫羽田(王庆祥饰)年事已高,承诺隐退。其所担任的中华武士会会长职位,自然引起武林高手的关注与觊觎。包括宫羽田的独生女宫二(章子怡 饰)在内,白猿马三(张晋饰)、关东之鬼丁连山(赵本山饰)、咏春叶问等高手无不将目光聚焦在正气凛然的宫羽田身上。拳有南北,国有南北乎?最有德行之人才堪会长重任,然这浮世虚名却引得无数迷乱之人狂醉奔忙,浪掷残生。生逢乱世,儿女情长埋藏心底,被冷若寒冰的车轮碾作碎泥……

幕后制作

  梁朝伟苦练真功夫

  据悉,梁朝伟为拍《一代宗师》可谓尽到全力,开机前便随叶问的关门弟子梁绍鸿苦练功夫,为此他甚至推掉很多片约,可见对此片的重视。

预告中,梁朝伟的功夫尽现咏春拳之“近身快打”、“肘底力”、“寸劲”,体现了“只杀敌,不表演”的风格,配以极具现代感的剪辑手法,极具视觉冲击力;当然,梁朝伟还不忘展现他招牌式的电眼和微笑,劲敌当前,面不改色,一派宗师气度。

  梁朝伟告诉记者,为演好功夫高手叶问,自己精神和身体都“备受摧残”,拍摄中胳膊不慎被武师踢断。前导海报展示的雨中激战的画面,只是很短的戏,王家卫却足足拍了一个月。

  动作导演袁和平也对梁朝伟的武戏表现自信满满:“伟仔目前的状态用‘巅峰’二字形容最合适不过。我从来不担心他的身手,经过多年精心训练,梁朝伟对咏春拳的掌握早已超出一般练武之人的境界。而且他悟性高,学习快,与甄子丹相比,伟仔的功夫已经拥有自己的风格,论身型,比子丹更潇洒。



  赵本山进组十次只拍一场戏

  赵本山在《一代宗师》中戏份并不多,为何他三番五次进组拍摄?记者了解到,原来王家卫拍戏精益求精,一些拍好的部分经常推倒重来,本山笑言:“《一代宗师》拍得非常慢,比排春晚小品慢多了,我去了剧组10次,就拍了一场戏。”

  尽管拍摄得很慢、很艰苦,本山甚至不知道自己在《一代宗师》中扮演的角色的最后命运,但他对于王家卫的才华依然钦佩,“东北有句俗话叫‘好饭不怕晚’,独特的导演总有其独特的创作方式。他的风格是在不断改动中完善整部戏,对于这样的导演我们应给予充分的尊重和理解。”

  在《一代宗师》中,喜好出其不意的王家卫却让本山来了一次大变身,不演喜剧改演正剧。记者采访得知,本山在这部电影里不让人发笑,相反,他让人紧张,因为他在片中和梁朝伟有一场精彩的打戏。

  不仅如此,本山与章子怡之间的戏份也相当给力,章子怡饰演的角色是八卦掌的传人,本山饰演的住在北方的一位武林高手,两人过招可谓是“雅与俗的碰撞”,至于两个人物的结局,本山透露他目前也不知晓,王家卫还在修改剧本。

  此外,王家卫两年前来沈阳为《一代宗师》选角时,小沈阳并不在演员表之列,不过记者得知,为给徒弟创造更多的学习机会,本山也带着小沈阳一同秘密进组,两人戏中再演师徒。

  豪华演员阵容曝光

  除梁朝伟扮演叶问之外,韩国影星宋慧乔出演叶问之妻,章子怡扮演的角色是一位八卦掌高手。据悉,这个版本的叶问将会以南北武林传奇故事为主线,片中将会出现多个门派的宗师级人物,其中张震将饰演八极门掌门,赵本山和王庆祥也将分饰不同地域的武学高手,至于另一位热门人物小沈阳的加盟,片方对其扮演的角色则秘而不宣。

  宗师之路:3年遍访百余位宗师

  1996年,王家卫在阿根廷拍摄《春光乍泄》时看到李小龙为封面的杂志,引起他的好奇,后来,他看到叶问离世3天前拍的一段视频,叶问在打拳中的一个停顿引起了王家卫的兴趣。后来武林中流传的一句话解开了他的疑惑:念念不忘,必有回响,有一口气,点一盏灯。“有灯就有人,叶问是希望把他的东西传下去”王家卫解释到,叶问离世前的这个小细节,开启了王家卫筹备《一代宗师》的“宗师之路”。

  在国家武术教练、李连杰师父吴彬介绍下,王家卫横跨南北和海峡,先后踏访北京、天津、山西、河北、内蒙古、东北、上海、浙江、台湾、广东、香港、澳门等地,拜访了咏春、八卦、八极、形意、通背、心意等各大拳派的百余位民间功夫宗师。

  王家卫:诚意打动隐世高人

  在王家卫遍访的这一百多位宗师中,既有像吴彬、叶准这样的武林泰斗,也有隐居民间、身怀绝技的血脉传人;既有咏春、形意、太极等广为人知的拳种,也有八卦、八极、通背等鲜为人知但却不容小觑的武林门派。王家卫以诚意打动隐世民间的师傅们,有些宗师,被导演诚意打动,甚至打破“门里门外两重天”的门派限制,将对自家徒弟都有所保留的绝技倾囊相告。

  八卦掌宗师程廷华的后人程增月已经隐居山西多年,经过多方探寻,王家卫终于找到老人并亲自探访,老人年逾八十,行动不便,听闻王家卫的想法,唏嘘不已,拿出床下当年慈禧太后御赐程家“节孝可风”的牌匾。台湾洪门第一山头金春山的最后一个山主王进发,向王家卫介绍旧时江湖礼数:“脉搏是你的血脉,这个血脉长存,我已经给你了”,给王家卫很大启发,遗憾的是,这位王师傅已于今年5月离世。

花   絮

· 从8年前开始筹备到正式开拍,《一代宗师》让王家卫再次挑战自己创造的“慢记录”。当年一部《2046》拍摄5年之久,被认为是影史上最耗时间的影片,而新片《一代宗师》却以10年的周期轻松打破了这个“最慢”纪录。

E:\rmvb资源\[高清MKV收藏www.hdbird.com]\老鸟家园[bbs.hd62.com].一代宗师.720p.国粤双语\一代宗师 The.Grandmaster.2013.BluRay.720p.x264.AC3-WOFEI.mkv
   General
      Unique ID : 221558926965413371794068130830789253021 (0xA6AEB27AF8C22768A174E27AC27A179D)
      Complete name : E:\rmvb资源\[高清MKV收藏www.hdbird.com]\老鸟家园[bbs.hd62.com].一代宗师.720p.国粤双语\一代宗师 The.Grandmaster.2013.BluRay.720p.x264.AC3-WOFEI.mkv
      Format : Matroska
      Format version : Version 2
      File size : 2.85 GiB
      Duration : 2h 10mn
      Overall bit rate : 3 131 Kbps
      Encoded date : UTC 2013-05-03 11:24:11
      Writing application : mkvmerge v3.4.0 ('Rapunzel') 编译于 May 15 2010 09:38:20
      Writing library : libebml v0.8.0 + libmatroska v0.9.0
   Video #1
      ID : 1
      Format : AVC
      Format/Info : Advanced Video Codec
      Format profile : High@L4.1
      Format settings, CABAC : Yes
      Format settings, ReFrames : 5 frames
      Codec ID : V_MPEG4/ISO/AVC
      Duration : 2h 10mn
      Bit rate : 2 234 Kbps
      Width : 1 280 pixels
      Height : 720 pixels
      Display aspect ratio : 16:9
      Frame rate : 24.000 fps
      Color space : YUV
      Chroma subsampling : 4:2:0
      Bit depth : 8 bits
      Scan type : Progressive
      Bits/(Pixel*Frame) : 0.101
      Stream size : 1.97 GiB (69%)
      Writing library : x264 core 116 r2074 2641b9e
      Encoding settings : cabac=1 / ref=5 / deblock=1:0:0 / analyse=0x3:0x113 / me=umh / subme=8 / psy=1 / psy_rd=1.00:0.00 / mixed_ref=1 / me_range=16 / chroma_me=1 / trellis=1 / 8x8dct=1 / cqm=0 / deadzone=21,11 / fast_pskip=1 / chroma_qp_offset=-2 / threads=12 / sliced_threads=0 / nr=0 / decimate=1 / interlaced=0 / bluray_compat=0 / constrained_intra=0 / bframes=3 / b_pyramid=0 / b_adapt=2 / b_bias=0 / direct=3 / weightb=1 / open_gop=0 / weightp=2 / keyint=250 / keyint_min=23 / scenecut=40 / intra_refresh=0 / rc_lookahead=50 / rc=2pass / mbtree=1 / bitrate=2234 / ratetol=1.0 / qcomp=0.60 / qpmin=10 / qpmax=51 / qpstep=4 / cplxblur=20.0 / qblur=0.5 / ip_ratio=1.40 / aq=1:1.00
   Audio #2
      ID : 2
      Format : AC-3
      Format/Info : Audio Coding 3
      Mode extension : CM (complete main)
      Codec ID : A_AC3
      Duration : 2h 10mn
      Bit rate mode : Constant
      Bit rate : 448 Kbps
      Channel(s) : 6 channels
      Channel positions : Front: L C R, Side: L R, LFE
      Sampling rate : 48.0 KHz
      Bit depth : 16 bits
      Compression mode : Lossy
      Stream size : 417 MiB (14%)
      Title : 国语
   Audio #3
      ID : 3
      Format : AC-3
      Format/Info : Audio Coding 3
      Mode extension : CM (complete main)
      Codec ID : A_AC3
      Duration : 2h 10mn
      Bit rate mode : Constant
      Bit rate : 448 Kbps
      Channel(s) : 6 channels
      Channel positions : Front: L C R, Side: L R, LFE
      Sampling rate : 48.0 KHz
      Bit depth : 16 bits
      Compression mode : Lossy
      Stream size : 417 MiB (14%)
      Title : 粤语
   Text #4
      ID : 4
      Format : UTF-8
      Codec ID : S_TEXT/UTF8
      Codec ID/Info : UTF-8 Plain Text
      Title : 中文




本帖隐藏的内容需要回复才可以浏览
分享到: 新浪微博新浪微博 QQ空间QQ空间 腾讯微博腾讯微博 腾讯朋友腾讯朋友

沙发??哈哈,非常感谢啊!

TOP

随便看看

TOP

谢谢分享

TOP

顶一个

TOP

本帖隐藏的内容需要回复才可以浏览

TOP

前来收藏

TOP

前排收藏·

TOP

顶起来,第一排!

TOP

1# 豺狼帝国


哈哈

TOP

返回列表