返回列表 发帖

猫鼠游戏 Catch.Me.If.You.Can.2002.BluRay.720p.x264.AC3-WOFEI 国英双语

本帖最后由 豺狼帝国 于 2013-5-4 19:15 编辑



◎译  名 猫鼠游戏/逍遥法外/神鬼交锋/捉智双雄
◎片  名 Catch Me If You Can
◎年  代 2002
◎国  家 美国
◎类  别 犯罪/剧情/传记
◎语  言 英语/普通话
◎字  幕 中英字幕/中文字幕/英中字幕/英文字幕
◎IMDB评分 7.9/10 from 243,680 users
◎IMDB链接 http://bbs.hd62.com/forum-30-1.html
◎文件格式 X264 + AC3
◎视频尺寸 1280 x 720
◎文件大小 1CD 3.17GB
◎片  长 141mins
◎导  演 斯蒂文·斯皮尔伯格/史蒂芬·史匹柏 Steven Spielberg
◎主  演 莱昂纳多·迪卡普里奥/李奥纳多狄卡皮欧 Leonardo DiC .... Frank Abagnale Jr.
      汤姆·汉克斯 Tom Hanks .... Carl Hanratty
      克里斯托弗·沃肯 Christopher Walken .... Frank Abagnale
      马丁·西恩 Martin Sheen .... Roger Strong
      娜塔莉·贝伊 Nathalie Baye .... Paula Abagnale
      艾米·亚当斯 Amy Adams .... Brenda Strong
      詹姆斯·布罗林 James Brolin .... Jack Barnes
      布赖恩·豪 Brian Howe .... Earl Amdursky
      Frank John Hughes .... Tom Fox
      斯蒂夫·伊斯丁 Steve Eastin .... Paul Morgan
      克里斯·埃里斯 Chris Ellis .... Special Agent Witkins
      约翰·芬 John Finn .... Assistant Director Marsh
      詹妮弗·加纳 Jennifer Garner .... Cheryl Ann
      Nancy Lenehan .... Carol Strong
      艾伦·旁派 Ellen Pompeo .... Marci
      伊丽莎白·班克斯 Elizabeth Banks .... Lucy
      Guy Thauvette .... Warden Garren
      凯蒂·阿扎拉 Candy Azzara .... Darcy
      Matthew Kimbrough .... Loan Officer
      Joshua Boyd .... Football Player


◎简  介 


  在18岁生日之前,弗兰克·阿巴内尔(迪卡普里奥)就已经是一名医生、律师和某大航空公司的飞行员了——你不相信?那就对了,再天才的神童也不可能神到如此地步呀,除非……没错,这家伙就是个骗子。不过,从这一点上说,弗兰克的确又是个神童--一个骗术高超得独一无二的天才骗子。

  从1964年到1966年之间,弗兰克·阿巴内尔这个离家出走的17岁流浪小子,利用他精湛的伪造技术和巧如簧的口才成功地“扮演”了医生、教授、首席检察官助理等各种显赫人物,骗取钱财和信任无数,活得潇洒快活。他不但伪造空投银行支票从银行诈骗了250多万美金,还冒充航空公司的飞行员免费周游世界各地。为此,他被FBI列为头号通缉犯——有史以来年纪最小的头号通缉犯。为了将他捉拿归案,FBI探员卡尔·汉拉蒂(汉克斯)与弗兰克展开了一场猫捉老鼠似的真人游戏,似乎每次就在卡尔马上要抓住弗兰克的时候,后者刚好比前者早一步逃脱了。

  为了早日交差,卡尔舍家弃子,对弗兰克穷追不舍。他既痛恨弗兰科所犯下的罪行和对自己的戏弄,却又不自觉地佩服他的聪明才智。渐渐地,兵与贼之间产生了形同父子的友情和默契,追与逃的游戏变得不再那么冷酷无情了。当然,除此之外,年少的弗兰克在环游世界的旅行中又怎么少得了一段浪漫的奇遇呢?……


幕后制作

  父子关系是该片的内在主线,连跟捉拿他的联邦调查局探员汉拉蒂和他之间,其实也是一种变异的父子关系。他俩之间的猫捉老鼠是影片的主要情节,仿佛是《亡命天涯》的喜剧版。这可能是莱昂纳多成年后扮演的最能发挥他本色的角色。影片的主题对白是通过一个重复了三次的小故事体现出来的:两只老鼠掉进牛奶里,其中一只放弃了希望,便淹死了,另一只则不停地挣扎,直到把牛奶搅成了奶酪,得以逃生。可以说,弗兰克身上散发着传统的“美国精神”。


  《逍遥法外》一片只花了短短的五十六天就拍摄完毕,全片用了超过一百四十个场景,外景地包括洛杉矶、纽约、蒙特娄以及魁北市。导演斯皮尔伯格说:"我们出了很多外景,有时候一天要赶三个外景地,我这辈子导戏没导得这么快过,不过这么赶的进度让演员和工作人员保持了很高昂的士气和动力。"

  李奥纳多·狄卡普里奥也说:"这是我拍过拍片进度最赶的制作,我们不断在移动,不过这是好事,就像是巡回剧团一样,每一个新的地方都有全新的表现,密集的行程也让整个制作团队充满了活力。"

  这么匆忙的拍片进度也反映了六十年代快速的生活节奏,汤姆·汉克斯说:"那是喷射机的时代,你可以在很短的时间内搭飞机飞到世界的另一边,对我这一代来说,那个年代总是光鲜亮丽,一切事物都是色彩鲜艳、大胆时髦。"

花絮

·在看过李奥纳多·狄卡普里奥的工作成果后,角色原形即真正的Frank Abagnale Jr.认为狄卡普里奥扮演他的时候并没有那么“温和的”。

·詹妮弗·加纳只用了一天的时间拍摄她的戏。

·飘动的美元钞票是模仿阿甘正传Forrest Gump (1994)中那根飘飞的羽毛。

·“迈阿密”机场的外景是在老安大略湖(加利福尼亚)机场的终点站拍摄完成的。老终点站现在还保留着,只是在新的安大略湖(加利福尼亚)机场投入使用后,被改建成了官方用地。

·虽然全部场景都是在晴天拍摄的,但每个镜头中看到的所有在街上和水泥路上的表面都是湿的。很多摄影师看起来都更喜欢湿漉漉的街道。

E:\rmvb资源\[高清MKV收藏www.hdbird.com]\老鸟家园[bbs.hd62.com].猫鼠游戏.720p.国英双语\猫鼠游戏 Catch.Me.If.You.Can.2002.BluRay.720p.x264.AC3-WOFEI.mkv
   General
      Unique ID : 251325668374189532573628017890619740323 (0xBD139024249D314C93D0364DCF4ED0A3)
      Complete name : E:\rmvb资源\[高清MKV收藏www.hdbird.com]\老鸟家园[bbs.hd62.com].猫鼠游戏.720p.国英双语\猫鼠游戏 Catch.Me.If.You.Can.2002.BluRay.720p.x264.AC3-WOFEI.mkv
      Format : Matroska
      Format version : Version 2
      File size : 3.17 GiB
      Duration : 2h 20mn
      Overall bit rate : 3 230 Kbps
      Encoded date : UTC 2013-05-04 10:20:13
      Writing application : mkvmerge v3.4.0 ('Rapunzel') 编译于 May 15 2010 09:38:20
      Writing library : libebml v0.8.0 + libmatroska v0.9.0
   Video #1
      ID : 1
      Format : AVC
      Format/Info : Advanced Video Codec
      Format profile : High@L4.1
      Format settings, CABAC : Yes
      Format settings, ReFrames : 5 frames
      Codec ID : V_MPEG4/ISO/AVC
      Duration : 2h 20mn
      Bit rate : 2 332 Kbps
      Width : 1 280 pixels
      Height : 694 pixels
      Display aspect ratio : 16:9
      Frame rate : 23.976 fps
      Color space : YUV
      Chroma subsampling : 4:2:0
      Bit depth : 8 bits
      Scan type : Progressive
      Bits/(Pixel*Frame) : 0.109
      Stream size : 2.23 GiB (70%)
      Writing library : x264 core 116 r2074 2641b9e
      Encoding settings : cabac=1 / ref=5 / deblock=1:0:0 / analyse=0x3:0x113 / me=umh / subme=8 / psy=1 / psy_rd=1.00:0.00 / mixed_ref=1 / me_range=16 / chroma_me=1 / trellis=1 / 8x8dct=1 / cqm=0 / deadzone=21,11 / fast_pskip=1 / chroma_qp_offset=-2 / threads=12 / sliced_threads=0 / nr=0 / decimate=1 / interlaced=0 / bluray_compat=0 / constrained_intra=0 / bframes=3 / b_pyramid=0 / b_adapt=2 / b_bias=0 / direct=3 / weightb=1 / open_gop=0 / weightp=2 / keyint=250 / keyint_min=23 / scenecut=40 / intra_refresh=0 / rc_lookahead=50 / rc=2pass / mbtree=1 / bitrate=2332 / ratetol=1.0 / qcomp=0.60 / qpmin=10 / qpmax=51 / qpstep=4 / cplxblur=20.0 / qblur=0.5 / ip_ratio=1.40 / aq=1:1.00
   Audio #2
      ID : 2
      Format : AC-3
      Format/Info : Audio Coding 3
      Mode extension : CM (complete main)
      Codec ID : A_AC3
      Duration : 2h 20mn
      Bit rate mode : Constant
      Bit rate : 448 Kbps
      Channel(s) : 6 channels
      Channel positions : Front: L C R, Side: L R, LFE
      Sampling rate : 48.0 KHz
      Bit depth : 16 bits
      Compression mode : Lossy
      Stream size : 451 MiB (14%)
      Title : 英语
   Audio #3
      ID : 3
      Format : AC-3
      Format/Info : Audio Coding 3
      Mode extension : CM (complete main)
      Codec ID : A_AC3
      Duration : 2h 20mn
      Bit rate mode : Constant
      Bit rate : 448 Kbps
      Channel(s) : 6 channels
      Channel positions : Front: L C R, Side: L R, LFE
      Sampling rate : 48.0 KHz
      Bit depth : 16 bits
      Compression mode : Lossy
      Delay relative to video : 1s 0ms
      Stream size : 451 MiB (14%)
      Title : 国语
   Text #4
      ID : 4
      Format : SSA
      Codec ID : S_TEXT/SSA
      Codec ID/Info : Sub Station Alpha
      Compression mode : Lossless
      Title : 中英
   Text #5
      ID : 5
      Format : SSA
      Codec ID : S_TEXT/SSA
      Codec ID/Info : Sub Station Alpha
      Compression mode : Lossless
      Title : 英中
   Text #6
      ID : 6
      Format : UTF-8
      Codec ID : S_TEXT/UTF8
      Codec ID/Info : UTF-8 Plain Text
      Title : 中文
   Text #7
      ID : 7
      Format : UTF-8
      Codec ID : S_TEXT/UTF8
      Codec ID/Info : UTF-8 Plain Text
      Title : 英文



本帖隐藏的内容需要回复才可以浏览
分享到: 新浪微博新浪微博 QQ空间QQ空间 腾讯微博腾讯微博 腾讯朋友腾讯朋友

推荐...结局很好,
警察的作用不止是将罪犯抓去关起来就结束了

TOP

感谢分享!!!!!!

TOP

定一个

TOP

感谢楼主分享影片

TOP

感谢分享!!!!!!

TOP

谢谢

TOP

感谢楼主分享!

TOP

感谢楼主分享

TOP

感谢楼主分享

TOP

返回列表