返回列表 发帖

海军陆战队3 The.Marine.3.Homefront.2013.BluRay.720p.x264.AC3-WOFEI 中英字幕



◎译  名 海军陆战队员3/海军陆战队:国土防线
◎片  名 The Marine: Homefront/The Marine 3 Homefront
◎年  代 2013
◎国  家 美国
◎类  别 动作
◎语  言 英语
◎字  幕 中英字幕/中文字幕/英中字幕/英文字幕
◎IMDB评分  N/A
◎IMDB链接 http://bbs.hd62.com/forum-30-1.html
◎文件格式 X264 + AC3
◎视频尺寸 1280 x 720
◎文件大小 1CD 2.18GB
◎片  长 90 Min
◎导  演 斯科特·维普 Scott Wiper
◎主  演 尼尔·麦克唐纳 Neal McDonough
      阿什丽·贝尔 Ashley Bell
      迈克·米赞尼 Mike Mizanin
      迈克尔·艾克朗德 Michael Eklund  ....Eckert
      Camille Sullivan  ....Amanda
      Jeff Ballard  ....Darren
      艾力克斯·保诺维奇 Aleks Paunovic  ....Gabriel
      Reese Alexander  ....SWAT Leader
      Paul Lazenby  ....Kirk
      贾莱德·金索 Jared Keeso  ....Harkin
      Darcy Laurie  ....Teddy
      Tony Alcantar  ....Glen
      Teach Grant  ....Brooks
      Phillip Mitchell  ....Leo
      肖恩·泰森 Sean Tyson  ....Murray

◎简  介 

  一名海军陆战队员将尽一切努力去拯救被棒加的侄女,并停止由一个激进的民兵组织领导恐怖袭击事件。

E:\rmvb资源\[高清MKV收藏www.hdbird.com]\老鸟家园[bbs.hd62.com].海军陆战队3.720p.中英字幕\海军陆战队3 The.Marine.3.Homefront.2013.BluRay.720p.x264.AC3-WOFEI.mkv
   General
      Unique ID : 244125281066222113677897426837842111742 (0xB7A8D1A35905A836BFAA256CE78F2CFE)
      Complete name : E:\rmvb资源\[高清MKV收藏www.hdbird.com]\老鸟家园[bbs.hd62.com].海军陆战队3.720p.中英字幕\海军陆战队3 The.Marine.3.Homefront.2013.BluRay.720p.x264.AC3-WOFEI.mkv
      Format : Matroska
      Format version : Version 2
      File size : 2.18 GiB
      Duration : 1h 30mn
      Overall bit rate : 3 469 Kbps
      Encoded date : UTC 2013-05-08 09:16:30
      Writing application : mkvmerge v3.4.0 ('Rapunzel') 编译于 May 15 2010 09:38:20
      Writing library : libebml v0.8.0 + libmatroska v0.9.0
   Video #1
      ID : 1
      Format : AVC
      Format/Info : Advanced Video Codec
      Format profile : High@L4.1
      Format settings, CABAC : Yes
      Format settings, ReFrames : 5 frames
      Codec ID : V_MPEG4/ISO/AVC
      Duration : 1h 30mn
      Bit rate : 3 021 Kbps
      Width : 1 280 pixels
      Height : 720 pixels
      Display aspect ratio : 16:9
      Frame rate : 23.976 fps
      Color space : YUV
      Chroma subsampling : 4:2:0
      Bit depth : 8 bits
      Scan type : Progressive
      Bits/(Pixel*Frame) : 0.137
      Stream size : 1.86 GiB (85%)
      Writing library : x264 core 116 r2074 2641b9e
      Encoding settings : cabac=1 / ref=5 / deblock=1:0:0 / analyse=0x3:0x113 / me=umh / subme=8 / psy=1 / psy_rd=1.00:0.00 / mixed_ref=1 / me_range=16 / chroma_me=1 / trellis=1 / 8x8dct=1 / cqm=0 / deadzone=21,11 / fast_pskip=1 / chroma_qp_offset=-2 / threads=12 / sliced_threads=0 / nr=0 / decimate=1 / interlaced=0 / bluray_compat=0 / constrained_intra=0 / bframes=3 / b_pyramid=0 / b_adapt=2 / b_bias=0 / direct=3 / weightb=1 / open_gop=0 / weightp=2 / keyint=250 / keyint_min=23 / scenecut=40 / intra_refresh=0 / rc_lookahead=50 / rc=2pass / mbtree=1 / bitrate=3021 / ratetol=1.0 / qcomp=0.60 / qpmin=10 / qpmax=51 / qpstep=4 / cplxblur=20.0 / qblur=0.5 / ip_ratio=1.40 / aq=1:1.00
   Audio #2
      ID : 2
      Format : AC-3
      Format/Info : Audio Coding 3
      Mode extension : CM (complete main)
      Codec ID : A_AC3
      Duration : 1h 30mn
      Bit rate mode : Constant
      Bit rate : 448 Kbps
      Channel(s) : 6 channels
      Channel positions : Front: L C R, Side: L R, LFE
      Sampling rate : 48.0 KHz
      Bit depth : 16 bits
      Compression mode : Lossy
      Stream size : 289 MiB (13%)
   Text #3
      ID : 3
      Format : SSA
      Codec ID : S_TEXT/SSA
      Codec ID/Info : Sub Station Alpha
      Compression mode : Lossless
      Title : 中英
   Text #4
      ID : 4
      Format : SSA
      Codec ID : S_TEXT/SSA
      Codec ID/Info : Sub Station Alpha
      Compression mode : Lossless
      Title : 英中
   Text #5
      ID : 5
      Format : UTF-8
      Codec ID : S_TEXT/UTF8
      Codec ID/Info : UTF-8 Plain Text
      Title : 中文
   Text #6
      ID : 6
      Format : UTF-8
      Codec ID : S_TEXT/UTF8
      Codec ID/Info : UTF-8 Plain Text
      Title : 英文


本帖隐藏的内容需要回复才可以浏览
分享到: 新浪微博新浪微博 QQ空间QQ空间 腾讯微博腾讯微博 腾讯朋友腾讯朋友

第一次抢沙发,跪拜啊,多不容易~~~

TOP

1# 大漠雄鹰


不知道好看不好看!!!!

TOP

谢谢楼主分享

TOP

支持  的
如果我是你  我也会有和你一样的感受

TOP

谢谢楼主分享

TOP

谢谢分享

TOP

下来看看哦

TOP

感谢楼主

TOP

老规矩,先回后下!!!!!!!

TOP

返回列表