返回列表 发帖

海底总动员 Finding.Nemo.2002.BluRay.720p.x264.AC3-WOFEI 国英台粤



◎译  名 海底总动员/寻找尼莫/海底奇兵
◎片  名 Finding Nemo
◎年  代 2003
◎国  家 美国
◎类  别 动画/冒险/喜剧/剧情/家庭
◎语  言 英语/国语/台语/粤语
◎字  幕 中英字幕/中文字幕/英中字幕/英文字幕/国配中字
◎IMDB评分 8.2/10 (65,967 votes) top 250: #108
◎IMDB链接 http://www.imdb.com/title/tt0266543
◎导  演 安德鲁·斯坦顿 Andrew Stanton
      李·安魁克 Lee Unkrich
◎主  演 艾伯特·布鲁克斯 Albert Brooks .... Marlin (voice)
      艾伦·德杰尼勒斯 Ellen DeGeneres .... Dory (voice)
      Alexander Gould .... Nemo (voice)
      威廉·达福 Willem Dafoe .... Gill (voice)
      布拉德·加瑞特 Brad Garrett .... Bloat (voice)
      埃里森·杰尼 Allison Janney .... Peach (voice)
      奥斯汀·彭德尔顿 Austin Pendleton .... Gurgle (voice)
      斯蒂芬·鲁特 Stephen Root .... Bubbles (voice)
      韦基·刘易斯 Vicki Lewis .... Deb/Flo (voice)
      乔·兰福特 Joe Ranft .... Jacques (voice)
      乔弗瑞·拉什 Geoffrey Rush .... Nigel (voice)
      安德鲁·斯坦顿 Andrew Stanton .... Crush (voice)
      伊丽莎白·帕金斯 Elizabeth Perkins .... Coral (voice)
      Nicholas Bird .... Squirt (voice)
      Bob Peterson .... Mr. Ray (voice)

◎简  介

  主角是一对可爱的小丑鱼(Clownfish)父子。父亲玛林和儿子尼莫一直在澳洲外海大堡礁中过着安定而"幸福"的平静生活。鱼爸爸玛林一直谨小慎微,行事缩手缩脚,虽然已经身为人父,却丝毫不会影响它成为远近闻名的胆小鬼。也正因为这一点,儿子尼莫常常与玛林发生争执,甚至有那么一点瞧不起自己的父亲。直到有一天,一直向往到海洋中冒险的尼莫,游出了他们所居住的珊瑚礁。正当尼莫想要舒展一下小尾巴的时候,一艘渔船毫不留情地将欢天喜地的尼莫捕走,并将它辗转卖到澳洲悉尼湾内的一家牙医诊所。

  在大堡礁的海底,心爱的儿子突然生死未卜的消息,对于鱼爸爸玛林来说却无异于晴天霹雳。尽管胆小尽管怕事,现在为了救回心爱的孩子,玛林也就只有豁出去了。它决心跟上澳洲洋流,踏上寻找自己儿子的漫漫征程。

  虽说是已下定决心,但这并不代表玛林可以在一夜之间抛弃自己怯懦的性格。途中与大白鲨布鲁斯的几次惊险追逐,很快便令它萌生退意,险些使父子重聚的希望化为泡影。但幸运的是,玛林遇到了来自撒马力亚(Samaritan)的蓝唐王鱼(Regal Blue Tang)多瑞(Dory)。多瑞是一只热心助人、胸怀宽广的大鱼。虽然严重的健忘症常常搞得玛林哭笑不得,但是有多瑞在身边做伴,却也渐渐令玛林明白了如何用勇气与爱战胜自己内心的恐惧,也懂得了一生中有一些事情的确是值得自己去冒险去努力的道理。

  就这样,两条鱼在辽阔的太平洋上的冒险使它们交到了形形色色的朋友,也遭遇了各式各样的危机。而鱼爸爸玛林也终于克服万难,与儿子团聚并安全地回到了自己的家乡。过去那个甚至连自己儿子都瞧不起的胆小鬼玛林,经过这次的考验后成为了儿子眼中真正的英雄!一场亲情团聚的大戏,就此在充满泪水的眼睛中落下了帷幕。

E:\rmvb资源\[高清MKV收藏www.hdbird.com]\老鸟家园[bbs.hd62.com].海底总动员.720p.国英台粤\海底总动员 Finding.Nemo.2002.BluRay.720p.x264.AC3-WOFEI.mkv
   General
      Unique ID : 177887733947950488355664760171462231806 (0x85D3EE6D473FB3748C09CCBD078186FE)
      Complete name : E:\rmvb资源\[高清MKV收藏www.hdbird.com]\老鸟家园[bbs.hd62.com].海底总动员.720p.国英台粤\海底总动员 Finding.Nemo.2002.BluRay.720p.x264.AC3-WOFEI.mkv
      Format : Matroska
      Format version : Version 4 / Version 2
      File size : 3.13 GiB
      Duration : 1h 40mn
      Overall bit rate : 4 448 Kbps
      Encoded date : UTC 2013-06-14 10:00:11
      Writing application : mkvmerge v6.2.0 ('Promised Land') built on Apr 28 2013 12:22:01
      Writing library : libebml v1.3.0 + libmatroska v1.4.0
   Video #1
      ID : 1
      Format : AVC
      Format/Info : Advanced Video Codec
      Format profile : High@L4.1
      Format settings, CABAC : Yes
      Format settings, ReFrames : 5 frames
      Codec ID : V_MPEG4/ISO/AVC
      Duration : 1h 40mn
      Bit rate : 2 652 Kbps
      Width : 1 280 pixels
      Height : 720 pixels
      Display aspect ratio : 16:9
      Frame rate : 23.976 fps
      Color space : YUV
      Chroma subsampling : 4:2:0
      Bit depth : 8 bits
      Scan type : Progressive
      Bits/(Pixel*Frame) : 0.120
      Stream size : 1.81 GiB (58%)
      Writing library : x264 core 116 r2074 2641b9e
      Encoding settings : cabac=1 / ref=5 / deblock=1:0:0 / analyse=0x3:0x113 / me=umh / subme=8 / psy=1 / psy_rd=1.00:0.00 / mixed_ref=1 / me_range=16 / chroma_me=1 / trellis=1 / 8x8dct=1 / cqm=0 / deadzone=21,11 / fast_pskip=1 / chroma_qp_offset=-2 / threads=12 / sliced_threads=0 / nr=0 / decimate=1 / interlaced=0 / bluray_compat=0 / constrained_intra=0 / bframes=3 / b_pyramid=0 / b_adapt=1 / b_bias=0 / direct=3 / weightb=1 / open_gop=0 / weightp=2 / keyint=250 / keyint_min=23 / scenecut=40 / intra_refresh=0 / rc_lookahead=50 / rc=2pass / mbtree=1 / bitrate=2652 / ratetol=1.0 / qcomp=0.60 / qpmin=10 / qpmax=51 / qpstep=4 / cplxblur=20.0 / qblur=0.5 / ip_ratio=1.40 / aq=1:1.00
   Audio #2
      ID : 2
      Format : AC-3
      Format/Info : Audio Coding 3
      Mode extension : CM (complete main)
      Codec ID : A_AC3
      Duration : 1h 40mn
      Bit rate mode : Constant
      Bit rate : 448 Kbps
      Channel(s) : 6 channels
      Channel positions : Front: L C R, Side: L R, LFE
      Sampling rate : 48.0 KHz
      Bit depth : 16 bits
      Compression mode : Lossy
      Stream size : 323 MiB (10%)
      Title : 英语
   Audio #3
      ID : 3
      Format : AC-3
      Format/Info : Audio Coding 3
      Mode extension : CM (complete main)
      Codec ID : A_AC3
      Duration : 1h 40mn
      Bit rate mode : Constant
      Bit rate : 448 Kbps
      Channel(s) : 6 channels
      Channel positions : Front: L C R, Side: L R, LFE
      Sampling rate : 48.0 KHz
      Bit depth : 16 bits
      Compression mode : Lossy
      Stream size : 323 MiB (10%)
      Title : 国语
   Audio #4
      ID : 4
      Format : AC-3
      Format/Info : Audio Coding 3
      Mode extension : CM (complete main)
      Codec ID : A_AC3
      Duration : 1h 40mn
      Bit rate mode : Constant
      Bit rate : 448 Kbps
      Channel(s) : 6 channels
      Channel positions : Front: L C R, Side: L R, LFE
      Sampling rate : 48.0 KHz
      Bit depth : 16 bits
      Compression mode : Lossy
      Stream size : 323 MiB (10%)
      Title : 粤语
   Audio #5
      ID : 5
      Format : AC-3
      Format/Info : Audio Coding 3
      Mode extension : CM (complete main)
      Codec ID : A_AC3
      Duration : 1h 40mn
      Bit rate mode : Constant
      Bit rate : 448 Kbps
      Channel(s) : 6 channels
      Channel positions : Front: L C R, Side: L R, LFE
      Sampling rate : 48.0 KHz
      Bit depth : 16 bits
      Compression mode : Lossy
      Stream size : 323 MiB (10%)
      Title : 台语
   Text #6
      ID : 6
      Format : SSA
      Codec ID : S_TEXT/SSA
      Codec ID/Info : Sub Station Alpha
      Compression mode : Lossless
      Title : 中英
   Text #7
      ID : 7
      Format : SSA
      Codec ID : S_TEXT/SSA
      Codec ID/Info : Sub Station Alpha
      Compression mode : Lossless
      Title : 英中
   Text #8
      ID : 8
      Format : UTF-8
      Codec ID : S_TEXT/UTF8
      Codec ID/Info : UTF-8 Plain Text
      Title : 中文
   Text #9
      ID : 9
      Format : UTF-8
      Codec ID : S_TEXT/UTF8
      Codec ID/Info : UTF-8 Plain Text
      Title : 英文
   Text #10
      ID : 10
      Format : UTF-8
      Codec ID : S_TEXT/UTF8
      Codec ID/Info : UTF-8 Plain Text
      Title : 国配中字




本帖隐藏的内容需要回复才可以浏览
分享到: 新浪微博新浪微博 QQ空间QQ空间 腾讯微博腾讯微博 腾讯朋友腾讯朋友

沙发

TOP

沙发。。。。。。。。。。。。
懂得更多做得更好,做得更好才能强于别人。

TOP

下来看看

TOP

很不错的片子啊我好想下载

TOP

尼莫~~~~

TOP

谢谢分享!!

TOP

我喜欢这个片子,孩子苦于看不到中文版。

TOP

谢谢分享

TOP

1024

TOP

返回列表