返回列表 发帖

肖申克的救赎 The.Shawshank.Redemption.1994.BluRay.720p.x264.AC3-WOFEI 中英字幕


◎译  名 肖申克的救赎/刺激1995/月黑高飞
◎片  名 The Shawshank Redemption
◎年  代 1994
◎国  家 美国
◎类  别 剧情
◎语  言 英语/普通话
◎字  幕 中英字幕/中文字幕/英中字幕/英文字幕
◎IMDB评分 9.2/10  378,302 votes Top 250: #1
◎IMDB链接 http://www.imdb.com/title/tt0111161
◎文件格式 x264+AC3
◎视频尺寸 1280 x 720
◎文件大小 1CD 3.18G
◎片  长 142 Mins
◎导  演 弗兰克·德拉邦特 Frank Darabont
◎主  演 Tim Robbins 蒂姆·罗宾斯 Tim Robbins
      Morgan Freeman 摩根·弗里曼 Morgan Freeman
      Bob Gunton 鲍勃·冈顿 Bob Gunton
      William Sadler 威廉姆·赛德勒 William Sadler
      Clancy Brown 克兰西·布朗 Clancy Brown
      Jude Ciccolella 祖德·塞克利拉 Jude Ciccolella
      Ned Bellamy 耐德·巴拉米 Ned Bellamy
      Gil Bellows 吉尔·贝罗斯 Gil Bellows

◎简  介 

 1947年,年轻有为的大银行副总裁安迪因涉嫌枪杀妻子和与之偷情的高尔夫球教练被判处两个无期徒刑,他将在肖申克监狱走完他的余生。

  1927年因谋杀罪被判无期徒刑的瑞德被喻作“肖申克的流动商店”,他可以弄到你想要的任何东西:香烟、糖果、威士忌甚至大麻,只要你付得起钱。每当有新囚报到的时候,瑞德都会和大家像赌马一样在自己认为第一夜会哭泣的人身上押下赌注。这次瑞德押了安迪,因此他输掉了两包香烟,而那个痛哭失声央求出去的可怜鬼则被警卫队长赫德利的乱棒送上了西天。

  刚刚入狱的安迪不断受到同性恋“姐妹帮”的鲍格斯的骚扰,每天除了在洗衣房干活就是和鲍格斯一伙抗争。很长时间以来安迪不和任何人说话,放风的时候他会像在花园里散步一样悠闲自得的走来走去。一个月后,安迪在瑞德的面前开了口,不久,安迪从瑞德手中拿到了10美元买来的岩石锤,他告诉瑞德用来雕刻国际象棋以消磨时间。很快,两人成了朋友。

  1949年的春天是安迪监狱生涯的转折。监狱要抽调10名志愿者去给工厂的楼顶刷沥青,神通广大的瑞德再次让自己的朋友得到了实惠,当然也包扩安迪。赫德利向同事抱怨哥哥的遗产税太高,机灵的安迪终于在被赫德利推下楼之前让他相信自己能帮助他合法逃脱大笔的税金,而条件是给他的伙伴每人3瓶啤酒。于是,肖申克从未有过的一幕出现了,在温暖的春光下,10名囚犯斜倚在楼顶,神轻气爽的喝着冰镇的虎牌啤酒,而安迪,却在角落里微笑。

  不久,安迪又从瑞德那里弄到了丽塔·海华丝的巨幅海报贴到墙上。在一次同鲍格斯的纠缠中,安迪被打得半死。作为回报,一向残暴的赫德利将鲍格斯打成了植物人。

  安迪精通财税制度的特长使他逐渐摆脱了繁重的体力劳动,经过典狱长诺顿的考查,安迪被派到监狱图书馆,开始为所有的狱警提供财务指导,从报税单到申请养老金计划,面面俱到。而最重要的是,他还是诺顿的洗钱工具。

  与此同时,安迪每周都给州议会写信,要求申请一笔用于监狱图书馆建设的经费。终于州议会忍受不了雪片一样安迪的来信,拨给监狱200美元和一些捐赠的图书和物品。安迪在捐赠的物品中无意间发现了一张唱片,称守卫不备,用扩音器将久违的天籁之音放给肖申克的所有狱友收听,对《费加罗的婚礼》片刻的心驰神往换来的是安迪两周的禁闭。

  已经入狱30载的瑞德再次被假释委员会拒之门内,而此时安迪也已在肖申克呆了整整10个年头,梦露的巨幅海报是瑞德送给他的10周年礼物。

  安迪仍在锲而不舍的给州议会写信,这次是每周两封。1959年,州议会答应每年给肖申克监狱图书馆拨款500美元,很快,肖申克的图书馆被改造成最好的监狱图书馆。

  一个年轻囚犯汤米的到来打破了安迪平静的狱中生活,他知道谁是杀害安迪妻子和情夫的真正凶手。当安迪满怀希望的向典狱长提出重新审理案件的请求时,却遭到断然拒绝并受到禁闭两个月的惩罚,唯一的知情人汤米也被典狱长陷害致死。

  绝望的安迪变得消沉,一天他向瑞德提起了墨西哥的小岛日哈塔尼奥,他说他要去开家小旅馆,买几只破船,他需要一个无所不能的人作他的帮手,他要瑞德出狱后一定要去巴克斯顿牧场,那是他向妻子求婚的地方,在那棵大橡树下埋着一只铁盒,瑞德会从里面得知真相。

  当天夜里雷雨交加,安迪缓缓爬过海报后面将近20年用岩石锤凿出的隧道,带着典狱长诺顿被洗干净的37万美元,朝着希望奔去……

幕后制作

  本片透过监狱这一强制剥夺自由、高度强调纪律的特殊背景来展现作为个体的人对“时间流逝、环境改造”的恐惧。影片的结局有一种《基督山伯爵》式的复仇宣泄。

D:\rmvb资源\[高清MKV收藏www.hdbird.com]\老鸟家园(bbs.hd62.com).肖申克的救赎.720p.中英字幕\肖申克的救赎(国英双语) The.Shawshank.Redemption.1994.BluRay.720p.x264.AC3-WOFEI.mkv
   General
      Complete name : D:\rmvb资源\[高清MKV收藏www.hdbird.com]\老鸟家园(bbs.hd62.com).肖申克的救赎.720p.中英字幕\肖申克的救赎(国英双语) The.Shawshank.Redemption.1994.BluRay.720p.x264.AC3-WOFEI.mkv
      Format : Matroska
      File size : 3.18 GiB
      Duration : 2h 22mn
      Overall bit rate : 3 194 Kbps
      Encoded date : UTC 2009-11-17 12:39:05
      Writing application : mkvmerge v2.4.0 ('Fumbling Towards Ecstasy') built on Oct 11 2008 20:13:15
      Writing library : libebml v0.7.7 + libmatroska v0.8.1
   Video #1
      ID : 1
      Format : AVC
      Format/Info : Advanced Video Codec
      Format profile : High@L4.1
      Format settings, CABAC : Yes
      Format settings, ReFrames : 4 frames
      Muxing mode : Container profile=Unknown@4.1
      Codec ID : V_MPEG4/ISO/AVC
      Duration : 2h 22mn
      Bit rate : 2 107 Kbps
      Nominal bit rate : 2 167 Kbps
      Width : 1 280 pixels
      Height : 720 pixels
      Display aspect ratio : 16:9
      Frame rate : 23.976 fps
      Resolution : 24 bits
      Colorimetry : 4:2:0
      Scan type : Progressive
      Bits/(Pixel*Frame) : 0.095
      Stream size : 2.10 GiB (66%)
      Writing library : x264 core 68 r1183M f21daff
      Encoding settings : cabac=1 / ref=4 / deblock=1:-1:-1 / analyse=0x3:0x113 / me=umh / subme=7 / psy_rd=1.0:0.0 / mixed_ref=1 / me_range=16 / chroma_me=1 / trellis=2 / 8x8dct=1 / cqm=0 / deadzone=21,11 / chroma_qp_offset=-2 / threads=6 / nr=0 / decimate=1 / mbaff=0 / bframes=3 / b_pyramid=0 / b_adapt=1 / b_bias=0 / direct=3 / wpredb=1 / keyint=250 / keyint_min=25 / scenecut=40 / rc=2pass / bitrate=2167 / ratetol=1.0 / qcomp=0.60 / qpmin=10 / qpmax=51 / qpstep=4 / cplxblur=20.0 / qblur=0.5 / vbv_maxrate=50000 / vbv_bufsize=50000 / ip_ratio=1.40 / pb_ratio=1.30 / aq=1:1.00
      Language : English
   Audio #2
      ID : 2
      Format : AC-3
      Format/Info : Audio Coding 3
      Codec ID : A_AC3
      Duration : 2h 22mn
      Bit rate mode : Constant
      Bit rate : 640 Kbps
      Channel(s) : 6 channels
      Channel positions : Front: L C R, Surround: L R, LFE
      Sampling rate : 48.0 KHz
      Stream size : 653 MiB (20%)
      Title : 英语原声
   Audio #3
      ID : 3
      Format : AC-3
      Format/Info : Audio Coding 3
      Codec ID : A_AC3
      Duration : 2h 22mn
      Bit rate mode : Constant
      Bit rate : 384 Kbps
      Channel(s) : 6 channels
      Channel positions : Front: L C R, Surround: L R, LFE
      Sampling rate : 48.0 KHz
      Stream size : 392 MiB (12%)
      Title : 国语配音
   Text #4
      ID : 4
      Format : SSA
      Codec ID : S_TEXT/SSA
      Codec ID/Info : Sub Station Alpha
      Title : 中英字幕
   Text #5
      ID : 5
      Format : SSA
      Codec ID : S_TEXT/SSA
      Codec ID/Info : Sub Station Alpha
      Title : 英中字幕
   Text #6
      ID : 6
      Format : SSA
      Codec ID : S_TEXT/SSA
      Codec ID/Info : Sub Station Alpha
      Title : 中文字幕
   Text #7
      ID : 7
      Format : SSA
      Codec ID : S_TEXT/SSA
      Codec ID/Info : Sub Station Alpha
      Title : 英文字幕




本帖隐藏的内容需要回复才可以浏览
收藏 分享
分享到: 新浪微博新浪微博 QQ空间QQ空间 腾讯微博腾讯微博 腾讯朋友腾讯朋友

居然是沙发  经典的片子 支持了

TOP

经典哦。

TOP

当然是经典中的经典

TOP

1# 豺狼帝国


肖申克的救赎 The.Shawshank.Redemption

TOP

经典中的经典~~~

TOP

Thank you for sharing

TOP

借个帖子问问 钢铁侠3 超人 啥时候出啊

TOP

谢谢分享 。。。。

TOP

谢谢分享。我收藏了。

TOP

返回列表