返回列表 发帖

低俗小说 Pulp.Fiction.1994.BluRay.720p.x264.AC3-WOFEI 中英字幕

本帖最后由 豺狼帝国 于 2013-8-7 12:56 编辑



◎译  名 低俗小说
◎片  名 Pulp Fiction
◎年  代 1994
◎国  家 美国
◎类  别 犯罪/剧情
◎语  言 英语
◎字  幕 中英字幕/中文字幕/英中字幕/英文字幕
◎IMDB评分 8.9/10 (280,413 votes) Top 250: #5
◎文件格式 X264 + AC3
◎视频尺寸 1280 x 720
◎文件大小 1CD 2.73G
◎片  长 155 Min
◎导  演 昆廷·特拉蒂诺 Quentin Tarantino
◎主  演 斯蒂夫·巴斯米 Steve Buscemi
      塞缪尔·杰克逊 Samuel L. Jackson
      哈威·凯尔 Harvey Keitel
      昆廷·特拉蒂诺 Quentin Tarantino
      乌玛·瑟曼 Uma Thurman
      约翰·特拉沃尔塔 John Travolta
      布鲁斯·威利斯 Bruce Willis
      罗赞娜·阿凯特 Rosanna Arquette
◎简  介 
本片由“文森特和马沙的妻子”、“金表”、“邦妮的处境”三个故事以及影片首尾的序幕和尾声五个部分组成,看似故事独立,却又互相连贯。
  盗贼“小南瓜”和“小兔子”是一对情侣,他们在早餐时突发奇想决定打劫正在就餐的餐馆和里面的众多顾客,并立即拔枪开始行动。
  马沙.华莱士是在洛杉矶只手遮天的黑社会大哥,最近以布莱特为首的几个年轻人侵吞了他一只装满黄金的皮箱,于是派手下朱尔斯和文森特去夺回这只箱子。清晨,朱尔斯和文森特到达目的地并闯进了那几个人的房间,正在吃早饭的三个年轻人都十分惊恐。文森特找到箱子后,朱尔斯就杀死了除内线马文以外的两个青年,象往常一样,在杀人之前,他背诵了一段钟爱的《圣经》……
《低俗小说》是鬼才导演昆汀·塔伦蒂诺的一部重要作品,对90年代后期的电影产生了深远的影响。影片摒弃了传统的叙事手法,而将三个看似独立却又首尾呼应的故事跳跃性地传递给观众,并在充斥着性、暴力、毒品的外表下,探讨当今社会暴力的无所不在,毫无公正可言,而人的命运更是不断地被他人所左右

E:\[高清MKV收藏www.hdbird.com]\老鸟家园[bbs.hd62.com].低俗小说.720P.中英字幕\低俗小说 Pulp.Fiction.1994.BluRay.720p.x264.AC3-WOFEI.mkv
   General
      Complete name : E:\[高清MKV收藏www.hdbird.com]\老鸟家园[bbs.hd62.com].低俗小说.720P.中英字幕\低俗小说 Pulp.Fiction.1994.BluRay.720p.x264.AC3-WOFEI.mkv
      Format : Matroska
      File size : 2.74 GiB
      Duration : 2h 34mn
      Overall bit rate : 2 527 Kbps
      Encoded date : UTC 2010-07-30 15:31:38
      Writing application : mkvmerge v4.1.1 ('Bouncin' Back') 编译于 Jul  3 2010 22:54:08
      Writing library : libebml v1.0.0 + libmatroska v1.0.0
   Video #1
      ID : 1
      Format : AVC
      Format/Info : Advanced Video Codec
      Format profile : High@L4.1
      Format settings, CABAC : Yes
      Format settings, ReFrames : 4 frames
      Muxing mode : Container profile=Unknown@4.1
      Codec ID : V_MPEG4/ISO/AVC
      Duration : 2h 34mn
      Bit rate : 2 029 Kbps
      Nominal bit rate : 2 086 Kbps
      Width : 1 280 pixels
      Height : 720 pixels
      Display aspect ratio : 16:9
      Frame rate : 23.976 fps
      Resolution : 8 bits
      Colorimetry : 4:2:0
      Scan type : Progressive
      Bits/(Pixel*Frame) : 0.092
      Stream size : 2.19 GiB (80%)
      Writing library : x264 core 98 r1649 c54c47d
      Encoding settings : cabac=1 / ref=4 / deblock=1:-1:-1 / analyse=0x3:0x113 / me=umh / subme=6 / psy=1 / psy_rd=1.00:0.00 / mixed_ref=1 / me_range=16 / chroma_me=1 / trellis=2 / 8x8dct=1 / cqm=0 / deadzone=21,11 / fast_pskip=1 / chroma_qp_offset=-2 / threads=6 / sliced_threads=0 / nr=0 / decimate=1 / interlaced=0 / constrained_intra=0 / bframes=3 / b_pyramid=0 / b_adapt=1 / b_bias=0 / direct=3 / weightb=1 / weightp=2 / keyint=250 / keyint_min=25 / scenecut=40 / intra_refresh=0 / rc_lookahead=40 / rc=2pass / mbtree=1 / bitrate=2086 / ratetol=1.0 / qcomp=0.60 / qpmin=10 / qpmax=51 / qpstep=4 / cplxblur=20.0 / qblur=0.5 / vbv_maxrate=50000 / vbv_bufsize=50000 / ip_ratio=1.40 / aq=1:1.00 / nal_hrd=none
   Audio #2
      ID : 2
      Format : AC-3
      Format/Info : Audio Coding 3
      Codec ID : A_AC3
      Duration : 2h 34mn
      Bit rate mode : Constant
      Bit rate : 448 Kbps
      Channel(s) : 6 channels
      Channel positions : Front: L C R, Surround: L R, LFE
      Sampling rate : 48.0 KHz
      Stream size : 497 MiB (18%)
   Text #3
      ID : 3
      Format : SSA
      Codec ID : S_TEXT/SSA
      Codec ID/Info : Sub Station Alpha
      Title : 中英字幕
   Text #4
      ID : 4
      Format : SSA
      Codec ID : S_TEXT/SSA
      Codec ID/Info : Sub Station Alpha
      Title : 英中字幕
   Text #5
      ID : 5
      Format : UTF-8
      Codec ID : S_TEXT/UTF8
      Codec ID/Info : UTF-8 Plain Text
      Title : 中文字幕
   Text #6
      ID : 6
      Format : UTF-8
      Codec ID : S_TEXT/UTF8
      Codec ID/Info : UTF-8 Plain Text
      Title : 英文字幕




本帖隐藏的内容需要回复才可以浏览
分享到: 新浪微博新浪微博 QQ空间QQ空间 腾讯微博腾讯微博 腾讯朋友腾讯朋友

人生第一次沙发!!!!!!!!!!!

TOP

1# 豺狼帝国


经典!!向经典致敬!!!
我爱我的民族,这是我自信心的源泉。

TOP

一定要下来看看,谢谢

TOP

里程碑作品

TOP

谢谢分享

TOP

经典的片子  多谢楼主的分享

TOP

1# 豺狼帝国


感谢楼主
曾四豆

TOP

经典

TOP

1# 豺狼帝国


asdasdasdasdasddas
娱乐,缓解压力!!!

TOP

返回列表