返回列表 发帖

七宗罪 Se7en.US.Remastered.Edition.1995.BluRay.720p.x264.AC3-WOFEI 中英字幕



◎译  名 七宗罪
◎片  名 Se7en
◎年  代 1995
◎国  家 美国
◎类  别 犯罪/神秘/惊怵
◎语  言 英语
◎字  幕 中英字幕/中文字幕/英中字幕/英文字幕
◎IMDB评分 8.7/10  282,632 votes  Top 250 #28
◎IMDB链接 http://bbs.hd62.com/forum-30-1.html
◎文件格式 X264 + AC3
◎视频尺寸 1280 x 720
◎文件大小 1CD 2.18G
◎片  长 127 MiN
◎导  演 大卫·芬奇 David Fincher
◎主  演 布拉德·皮特 Brad Pitt  ....Detective David Mills
      摩根·弗里曼 Morgan Freeman  ....Detective Lt. William Somerset
      格温妮斯·帕特洛 Gwyneth Paltrow  ....Tracy Mills
      凯文·史派西 Kevin Spacey  ....John Doe
      R·李·艾尔米 R. Lee Ermey  ....Police Captain
      安德鲁·凯文·沃克 Andrew Kevin Walker  ....Dead Man (as Andy Walker)
      Garret Pearson  ....Detective Taylor
      John Cassini  ....Officer Davis
      Bob Mack  ....Gluttony Victim
      Peter Crombie  ....Dr. O'Neill
      Reg E. Cathey  ....Coroner (as Reginald E. Cathey)
      George Christy  ....Workman
      Endre Hules  ....Cab Driver
      霍桑·詹姆斯 Hawthorne James  ....George, Library Night Guard
      William Davidson  ....Library Guard (as Roscoe Davidson)
      Bob Collins  ....Library Guard
      Jimmy Dale Hartsell  ....Library Janitor
      理查德·朗德特依 Richard Roundtree  ....Dist. Atty. Martin Talbot
      Charline Su  ....TV News Reporter
      Dominique Jennings  ....TV News Reporter
      Allan Kolman  ....Forensic Man
      Beverly Burke  ....TV Anchor Woman
      Gene Borkan  ....Eli Gould (Sin of Greed)
      Julie Araskog  ....Mrs. Gould
      Mario Di Donato  ....Fingerprint Forensic Man
      Alfonso Freeman  ....Fingerprint Technician
      John C. McGinley  ....California
      Robert J. Stephenson  ....Cop on SWAT Team (as Robert J. Stephenson)
      Harrison White  ....Cop on SWAT Team
      Michael Reid MacKay  ....Victor (Sin of Sloth)
      Richard Portnow  ....Dr. Beardsley
      Tudor Sherrard  ....Coupon Man
      Mark Boone Junior  ....Greasy FBI Man
      Pamala Tyson  ....Homeless Woman
      Lennie Loftin  ....Policeman
      Sarah Reinhardt  ....Police Sketch Artist (as Sarah Hale Reinhardt)
      艾米莉·瓦格纳 Emily Wagner  ....Detective Sara
      Martin Serene  ....Wild Bill
      Michael Massee  ....Man in Massage Parlour Booth
      David Correia  ....Cop at Massage Parlour
      Ron Blair  ....Cop at Massage Parlour
      Cat Mueller  ....Hooker (Sin of Lust)
      勒兰德·奥瑟 Leland Orser  ....Crazed Man in Massage Parlour
      Lexie Bigham  ....Sweating Cop at Massage Parlour
      Evan Miranda  ....Paramedic
      哈里斯·萨维德斯 Harris Savides  ....911 Operator
      Rachel Schadt  ....Additional 911 Operator (as Rachel Schadt)
      Paul Eckstein  ....Paramedic (as Paul S. Eckstein)
      Heidi Schanz  ....Beautiful Woman (Sin of Pride)
      Brian Evers  ....Duty Sergeant
      Shannon Wilcox  ....Cop Behind Desk
      理查德·希夫 Richard Schiff  ....Mark Swarr (John Doe's Lawyer)
      John Santin  ....Helicopter Pilot
      James Deeth  ....Helicopter Pilot
      Charles A. Tamburro  ....SWAT Helicopter Pilot
      Richmond Arquette  ....Delivery Man
      Duffy Gaver  ....Marksman in Helicopter
      查尔斯·达顿 Charles Dutton  ....Cop (uncredited)

◎简  介 
  天主教明言七宗罪:「暴食」、「贪婪」、「懒惰」、「嫉妒」、「骄傲」、「愤怒」。沙摩塞是承办凶杀案的资深员警,即将退休,而米尔斯是新手,一付兴致高昂,自愿请调至这一分局。星期一上午,一件凶杀案发生,凶手在冰箱后写著「暴食」,星期二,是一位律师,现场写著「贪婪」,一天一个,依七宗罪而死。面对此案,沙摩塞心中有诸多挣札,住在这城市已久的他,早已习惯,冷眼看事情,本想不接此案,几经考虑又留下来帮米尔斯,米尔斯血气方刚,冲动易怒,故弄玄虚的凶手因而选上他做为七宗罪的最后一人-「愤怒」。强竟杀了米的妻子崔西来激怒他。让自己成为「嫉妒」,米尔斯成为「愤怒」,强也赢得了这场游戏。沙可以退休了,但看著囚车中的米尔斯,究竟是社会始终如此不堪,或者天真单纯也是一种罪 。
  如果你还未看过《七宗罪》,那你请别问任何人本片的故事大纲,因为好奇是《七》片最主要的成功元素之一。导演大卫.芬查不但打破好莱坞传统类型电影的框框,还不断把惊喜带给观众,使这部看似是警匪惊吓片的电影比任何同类制作如《沉默的羔羊》等还要出色和震憾。不过,如果你已看过《七》片,那你便可再在本影碟上留心故事以外的不少东西。
  首先,单是三位主角的演绎已叫人叹为观止,布拉德 皮特也得以证明自己并非徒具外表的靓仔小生。另一方面,片中的美术指导与摄影技巧也是同样的严谨细致,令气氛更加深沉诡秘,如那不停下雨的城市,灰暗的室内灯光与强烈的光影对比等,处处尽显导演的功力所在。大卫.芬查对气氛与场面后掌握完美并能尽情发挥,在强烈的个人风格背后,创作出比《2020》更具末世感觉的现代城市,足以令观众不寒而栗。

F:\rmvb资源\[高清MKV收藏www.hdbird.com]\老鸟家园[bbs.hd62.com].七宗罪.720P.中英字幕\七宗罪 Se7en.US.Remastered.Edition.1995.BluRay.720p.x264.AC3-WOFEI.mkv
   General
      Complete name : F:\rmvb资源\[高清MKV收藏www.hdbird.com]\老鸟家园[bbs.hd62.com].七宗罪.720P.中英字幕\七宗罪 Se7en.US.Remastered.Edition.1995.BluRay.720p.x264.AC3-WOFEI.mkv
      Format : Matroska
      File size : 2.18 GiB
      Duration : 2h 6mn
      Overall bit rate : 2 466 Kbps
      Encoded date : UTC 2010-10-15 14:49:55
      Writing application : mkvmerge v3.3.0 ('Language') 编译于 Mar 24 2010 14:59:24
      Writing library : libebml v0.8.0 + libmatroska v0.9.0
   Video #1
      ID : 1
      Format : AVC
      Format/Info : Advanced Video Codec
      Format profile : High@L4.1
      Format settings, CABAC : Yes
      Format settings, ReFrames : 4 frames
      Muxing mode : Container profile=Unknown@4.1
      Codec ID : V_MPEG4/ISO/AVC
      Duration : 2h 6mn
      Bit rate : 1 969 Kbps
      Nominal bit rate : 2 017 Kbps
      Width : 1 280 pixels
      Height : 720 pixels
      Display aspect ratio : 16:9
      Frame rate : 23.976 fps
      Resolution : 8 bits
      Colorimetry : 4:2:0
      Scan type : Progressive
      Bits/(Pixel*Frame) : 0.089
      Stream size : 1.74 GiB (80%)
      Writing library : x264 core 98 r1649 c54c47d
      Encoding settings : cabac=1 / ref=4 / deblock=1:-1:-1 / analyse=0x3:0x113 / me=umh / subme=6 / psy=1 / psy_rd=1.00:0.00 / mixed_ref=1 / me_range=16 / chroma_me=1 / trellis=2 / 8x8dct=1 / cqm=0 / deadzone=21,11 / fast_pskip=1 / chroma_qp_offset=-2 / threads=6 / sliced_threads=0 / nr=0 / decimate=1 / interlaced=0 / constrained_intra=0 / bframes=3 / b_pyramid=0 / b_adapt=1 / b_bias=0 / direct=3 / weightb=1 / weightp=2 / keyint=250 / keyint_min=25 / scenecut=40 / intra_refresh=0 / rc_lookahead=40 / rc=2pass / mbtree=1 / bitrate=2017 / ratetol=1.0 / qcomp=0.60 / qpmin=10 / qpmax=51 / qpstep=4 / cplxblur=20.0 / qblur=0.5 / vbv_maxrate=50000 / vbv_bufsize=50000 / ip_ratio=1.40 / aq=1:1.00 / nal_hrd=none
      Language : English
   Audio #2
      ID : 2
      Format : AC-3
      Format/Info : Audio Coding 3
      Codec ID : A_AC3
      Duration : 2h 6mn
      Bit rate mode : Constant
      Bit rate : 448 Kbps
      Channel(s) : 6 channels
      Channel positions : Front: L C R, Surround: L R, LFE
      Sampling rate : 48.0 KHz
      Stream size : 406 MiB (18%)
   Text #3
      ID : 3
      Format : SSA
      Codec ID : S_TEXT/SSA
      Codec ID/Info : Sub Station Alpha
      Title : 中英文
   Text #4
      ID : 4
      Format : SSA
      Codec ID : S_TEXT/SSA
      Codec ID/Info : Sub Station Alpha
      Title : 英中文
   Text #5
      ID : 5
      Format : UTF-8
      Codec ID : S_TEXT/UTF8
      Codec ID/Info : UTF-8 Plain Text
      Title : 中文
   Text #6
      ID : 6
      Format : UTF-8
      Codec ID : S_TEXT/UTF8
      Codec ID/Info : UTF-8 Plain Text
      Title : 英文



本帖隐藏的内容需要回复才可以浏览
分享到: 新浪微博新浪微博 QQ空间QQ空间 腾讯微博腾讯微博 腾讯朋友腾讯朋友

好啊,谢谢分享哦

TOP

2楼啊

TOP

都是经典影片啊,支持楼主

TOP

谢谢楼主分享.

TOP

经典啊,值得反复观看

TOP

好片

TOP

前排了吧,哈哈
当你不能再拥有的时候,就让自己不要忘记

TOP

经典片子,下来回顾下

TOP

dddd``````````````````````

TOP

返回列表