返回列表 发帖

记忆碎片 Memento.2000.BluRay.720p.x264.AC3-WOFEI 中英字幕


◎片  名 Memento
◎中文 名 记忆碎片/纪念品/记忆拼图/记忆迷局
◎年  代 2000
◎国  家 美国
◎类  别 犯罪/剧情/神秘/惊悚
◎语  言 英语
◎字  幕 中英字幕/中文字幕/英中字幕/英文字幕
◎IMDB评分 8.6/10 (208,959 votes) top 250: #28 
◎IMDB链接  http://www.imdb.com/title/tt0209144/
◎文件格式 X264 + AC3
◎视频尺寸 1280 x 720
◎文件大小 1CD 2.18G
◎片  长 113分钟
◎导  演 克里斯托弗·诺兰Christopher Nolan
◎主  演 盖·皮尔斯Guy Pearce
      凯瑞·安妮·莫斯Carrie-Anne Moss
      乔·帕托利亚诺Joe Pantoliano
      小马克·布恩Mark Boone Jr.
      
◎简  介 
莱昂纳多·谢尔比(盖·皮尔斯)总是穿着价值不菲的手工制套装,开着最新款式的美洲豹跑车,表面看上去他是个不折不扣的成功商人,可是,他却没有家,匿名住在廉价的汽车旅馆里,用现金付帐,他的生活只有一个目标,那就是向杀害他妻子的凶手复仇。
  原来,若干时日以前,正值新婚的谢尔比夫妇遭到了一名歹徒的袭击,凶犯残忍地杀害了莱昂纳多的妻子,莱昂纳多自己虽然从死亡线上挣扎了回来,却因为脑部的严重损伤而得了一种奇怪的“短期记忆丧失症”,从此他只能记住几分钟前发生的事情。尽管在警方看来,这是一起每天都会发生的普通抢劫案件,但是莱昂纳多的生活却从此彻底改变了,不满于警方草草结案,莱昂纳多发誓要追查到凶手,替惨死的爱妻报仇。
  可是,支离破碎的记忆却令莱昂纳多举步维艰,他只能凭借一些零碎的小东西诸如纹身、宝丽来快照等才能回忆起过去的点点滴滴,而且,每当他找到一些有价值的线索时,他必须要使用一切方法立即将之记录下来,因为很可能十几分钟后,他就根本无法记得自己在什么地方、来做什么。
  调查艰难地进行着,莱昂纳多遇上一个粗俗的酒吧女招待娜塔莉娅(凯瑞·安妮·莫斯),她似乎知道一些莱昂纳多感兴趣的事,还有一个自称是他以前好朋友的叫泰迪(乔·帕托利亚诺)的家伙,但是他看上去鬼鬼祟祟的,好象不怀好意,到底谁才可以信任,娜塔莉娅?泰迪?还是他自己?那些不断显现出的记忆到底会把自己引向哪里?莱昂纳多陷入了困惑中……



E:\[高清MKV收藏www.hdbird.com]\老鸟家园[bbs.hd62.com].记忆碎片.720P.中英字幕\记忆碎片 Memento.2000.BluRay.720p.x264.AC3-WOFEI.mkv
   General
      Complete name : E:\[高清MKV收藏www.hdbird.com]\老鸟家园[bbs.hd62.com].记忆碎片.720P.中英字幕\记忆碎片 Memento.2000.BluRay.720p.x264.AC3-WOFEI.mkv
      Format : Matroska
      File size : 2.18 GiB
      Duration : 1h 53mn
      Overall bit rate : 2 758 Kbps
      Encoded date : UTC 2010-08-08 15:31:09
      Writing application : mkvmerge v4.1.1 ('Bouncin' Back') 编译于 Jul  3 2010 22:54:08
      Writing library : libebml v1.0.0 + libmatroska v1.0.0
   Video #1
      ID : 1
      Format : AVC
      Format/Info : Advanced Video Codec
      Format profile : High@L4.1
      Format settings, CABAC : Yes
      Format settings, ReFrames : 4 frames
      Muxing mode : Container profile=Unknown@4.1
      Codec ID : V_MPEG4/ISO/AVC
      Duration : 1h 53mn
      Bit rate : 2 255 Kbps
      Nominal bit rate : 2 311 Kbps
      Width : 1 280 pixels
      Height : 720 pixels
      Display aspect ratio : 16:9
      Frame rate : 24.000 fps
      Resolution : 8 bits
      Colorimetry : 4:2:0
      Scan type : Progressive
      Bits/(Pixel*Frame) : 0.102
      Stream size : 1.79 GiB (82%)
      Title : 痴情浪子@HDBIRD
      Writing library : x264 core 98 r1649 c54c47d
      Encoding settings : cabac=1 / ref=4 / deblock=1:-1:-1 / analyse=0x3:0x113 / me=umh / subme=6 / psy=1 / psy_rd=1.00:0.00 / mixed_ref=1 / me_range=16 / chroma_me=1 / trellis=2 / 8x8dct=1 / cqm=0 / deadzone=21,11 / fast_pskip=1 / chroma_qp_offset=-2 / threads=6 / sliced_threads=0 / nr=0 / decimate=1 / interlaced=0 / constrained_intra=0 / bframes=3 / b_pyramid=0 / b_adapt=1 / b_bias=0 / direct=3 / weightb=1 / weightp=2 / keyint=250 / keyint_min=25 / scenecut=40 / intra_refresh=0 / rc_lookahead=40 / rc=2pass / mbtree=1 / bitrate=2311 / ratetol=1.0 / qcomp=0.60 / qpmin=10 / qpmax=51 / qpstep=4 / cplxblur=20.0 / qblur=0.5 / vbv_maxrate=50000 / vbv_bufsize=50000 / ip_ratio=1.40 / aq=1:1.00 / nal_hrd=none
   Audio #2
      ID : 2
      Format : AC-3
      Format/Info : Audio Coding 3
      Codec ID : A_AC3
      Duration : 1h 53mn
      Bit rate mode : Constant
      Bit rate : 448 Kbps
      Channel(s) : 6 channels
      Channel positions : Front: L C R, Surround: L R, LFE
      Sampling rate : 48.0 KHz
      Stream size : 363 MiB (16%)
      Title : 英语
   Text #3
      ID : 3
      Format : SSA
      Codec ID : S_TEXT/SSA
      Codec ID/Info : Sub Station Alpha
      Title : 中英字幕
   Text #4
      ID : 4
      Format : SSA
      Codec ID : S_TEXT/SSA
      Codec ID/Info : Sub Station Alpha
      Title : 英中字幕
   Text #5
      ID : 5
      Format : UTF-8
      Codec ID : S_TEXT/UTF8
      Codec ID/Info : UTF-8 Plain Text
      Title : 中文字幕
   Text #6
      ID : 6
      Format : UTF-8
      Codec ID : S_TEXT/UTF8
      Codec ID/Info : UTF-8 Plain Text
      Title : 英文字幕




本帖隐藏的内容需要回复才可以浏览
分享到: 新浪微博新浪微博 QQ空间QQ空间 腾讯微博腾讯微博 腾讯朋友腾讯朋友

记忆碎片 Memento,谢谢分享

TOP

kankan

TOP

居然没看过,更上

TOP

1# 豺狼帝国


多谢,下来看看

TOP

经典片子,下来回顾下

TOP

经典的片子  多谢楼主分享

TOP

1# 豺狼帝国


特别好看
我爱看电影

TOP

下来看拉面

TOP

下来看看

TOP

返回列表