返回列表 发帖

美国X档案 American.History.X.1998.BluRay.720p.x264.AC3-WOFEI 中英字幕


◎片  名 American History X
◎中文 名 美国X档案/野兽良民
◎年  代 1998
◎国  家 美国
◎类  别 剧情/惊险/犯罪
◎语  言 英语
◎字  幕 中英字幕/中文字幕/英中字幕/英文字幕
◎IMDB评分 8.6/10   475,281 votes Top 250: #38
◎IMDB链接http://www.imdb.com/title/tt0120586/
◎文件格式 x264 + AC3
◎视频尺寸 1280 x 720
◎文件大小 1CD 2.05G
◎片  长 108 Min
◎导  演 托尼·凯耶 Tony Kaye
◎主  演 爱德华·诺顿 Edward Norton
      爱德华·弗朗 Edward Furlong
      贝佛莉·德安洁萝 Beverly D'Angelo
      詹尼弗·丽恩 Jennifer Lien
      伊桑·苏普利 Ethan Suplee
      菲路安·巴克 Fairuza Balk
      埃弗里·布鲁克斯 Avery Brooks
      埃利奥特·古尔德 Elliott Gould
      
◎简  介 
  德瑞克温亚(爱德华诺顿)是一个极端聪明,可是却四处惹祸的青年,他崇拜新纳粹主义,仇视所有有色人种。他原来只是一个普通的在学青年,有一个小康家庭,学校功课名列前矛,造成他充满仇恨的性格主要是因为幼年时父亲被黑人所射杀,他将所有的悲伤与愤怒,转成对付有色人种的力量,他崇拜纳粹党,将书房贴满了希特勒的照片,更在身上刺上纳粹的〖字图腾,同时积极地收编社区里的白人青少年,成为他的白人势力,到处迫害有色人种的商家,让种族之间的对立更加明显,在一次与黑人的冲突中,他射杀了两名黑人,被判刑入狱,可是无形中却更加确定他在该帮会中的领导地位。
  他的弟弟丹尼(爱德华福龙)一样是位聪明绝顶的学生,视他哥哥为新一代的白人英雄,效法他的行为,也在自己身上刺上许多新纳粹的图腾,眼见丹尼就要踏入他哥哥的後尘,於是他的老师规定他,要他回忆当时他哥哥的种种行为,编写成一份报告,透过这份报告,我们可轻易地看出这个家族的悲伤过去与无奈,这份作业的名字就是『美国X档案』。在狱中的德瑞克并不好过,他身上的新纳粹标记使他成为黑人注意的焦点,使他不得不与许多和他一样的新纳粹白人靠拢,以求自保,可是他因为工作的关系,竟然与一个黑人结成了好朋友,在此同时,他发现自己所投靠的团体,还有吸食毒品等其他不法行为时,这使他的高贵白人梦想完全破灭,他决定要脱离他们,可是结果却是一顿狠狠的修理。
  这一次的教训让他对自己的过去充份地反悔了,回首过去因为年少无知所闯下的大祸,他决定不顾一切痛改前非,但是他故乡的同伴与女友都不知道他的想法,只顾着他的出狱疯狂地喝酒庆祝,这个当时他所组织的白人战士团,已经比叁年前大了将近十倍,但是他深深明了,这个组织已经被有心人士给利用了,於是他告诉他的女友,他要离开他们了,并且带着他的弟弟,永远离开这个是非之地,并且代替已经过世的父亲,重新让这个家走回他该走的方向,也要弟弟好好的念书,两个人放弃仇恨的过去,重新过生活,可是浪子回头,真的能够金不换吗?
F:\rmvb资源\[高清MKV收藏www.hdbird.com]\老鸟家园(bbs.hd62.com).美国X档案.720P.中英字幕\美国X档案 American.History.X.1998.BluRay.720p.x264.AC3-WOFEI.mkv
   General
      Complete name : F:\rmvb资源\[高清MKV收藏www.hdbird.com]\老鸟家园(bbs.hd62.com).美国X档案.720P.中英字幕\美国X档案 American.History.X.1998.BluRay.720p.x264.AC3-WOFEI.mkv
      Format : Matroska
      File size : 2.05 GiB
      Duration : 1h 58mn
      Overall bit rate : 2 470 Kbps
      Encoded date : UTC 2010-05-23 12:51:02
      Writing application : mkvmerge v3.3.0 ('Language') 编译于 Mar 24 2010 14:59:24
      Writing library : libebml v0.8.0 + libmatroska v0.9.0
   Video #1
      ID : 1
      Format : AVC
      Format/Info : Advanced Video Codec
      Format profile : High@L4.1
      Format settings, CABAC : Yes
      Format settings, ReFrames : 4 frames
      Muxing mode : Container profile=Unknown@4.1
      Codec ID : V_MPEG4/ISO/AVC
      Duration : 1h 58mn
      Bit rate : 1 973 Kbps
      Nominal bit rate : 2 020 Kbps
      Width : 1 280 pixels
      Height : 720 pixels
      Display aspect ratio : 16:9
      Frame rate : 23.976 fps
      Resolution : 8 bits
      Colorimetry : 4:2:0
      Scan type : Progressive
      Bits/(Pixel*Frame) : 0.089
      Stream size : 1.64 GiB (80%)
      Writing library : x264 core 80 r1376M 3feaec2
      Encoding settings : cabac=1 / ref=4 / deblock=1:-1:-1 / analyse=0x3:0x113 / me=umh / subme=6 / psy=1 / psy_rd=1.0:0.0 / mixed_ref=1 / me_range=16 / chroma_me=1 / trellis=2 / 8x8dct=1 / cqm=0 / deadzone=21,11 / fast_pskip=1 / chroma_qp_offset=-2 / threads=6 / sliced_threads=0 / nr=0 / decimate=1 / mbaff=0 / constrained_intra=0 / bframes=3 / b_pyramid=0 / b_adapt=1 / b_bias=0 / direct=3 / wpredb=1 / wpredp=2 / keyint=250 / keyint_min=25 / scenecut=40 / rc_lookahead=40 / rc=2pass / mbtree=1 / bitrate=2020 / ratetol=1.0 / qcomp=0.60 / qpmin=10 / qpmax=51 / qpstep=4 / cplxblur=20.0 / qblur=0.5 / vbv_maxrate=50000 / vbv_bufsize=50000 / ip_ratio=1.40 / aq=1:1.00
      Language : English
   Audio #2
      ID : 2
      Format : AC-3
      Format/Info : Audio Coding 3
      Codec ID : A_AC3
      Duration : 1h 58mn
      Bit rate mode : Constant
      Bit rate : 448 Kbps
      Channel(s) : 6 channels
      Channel positions : Front: L C R, Surround: L R, LFE
      Sampling rate : 48.0 KHz
      Stream size : 381 MiB (18%)
   Text #3
      ID : 3
      Format : SSA
      Codec ID : S_TEXT/SSA
      Codec ID/Info : Sub Station Alpha
      Title : 中英字幕
   Text #4
      ID : 4
      Format : SSA
      Codec ID : S_TEXT/SSA
      Codec ID/Info : Sub Station Alpha
      Title : 英中字幕
   Text #5
      ID : 5
      Format : UTF-8
      Codec ID : S_TEXT/UTF8
      Codec ID/Info : UTF-8 Plain Text
      Title : 中文字幕
   Text #6
      ID : 6
      Format : UTF-8
      Codec ID : S_TEXT/UTF8
      Codec ID/Info : UTF-8 Plain Text
      Title : 英文字幕




本帖隐藏的内容需要回复才可以浏览
分享到: 新浪微博新浪微博 QQ空间QQ空间 腾讯微博腾讯微博 腾讯朋友腾讯朋友

谢谢楼主分享

TOP

首页抢到座了

TOP

评分挺高,居然没看过

TOP

实在不记得是不是保存了这个电影,看看先。

TOP

谢谢楼主分享。

TOP

1# 豺狼帝国
好电影,顶一个!

TOP

首页留名,非常经典的电影,没看过的墙裂推荐看一下!
活着就得折腾

TOP

kkkkkkkkkkkkkk

TOP

很不错的片子安慰喜欢下载

TOP

返回列表