返回列表 发帖

美丽心灵的永恒阳光 2004.BluRay.720p.x264.AC3-WOFEI 中英字幕



◎译  名 美丽心灵的永恒阳光
◎片  名 Eternal Sunshine of the Spotless Mind
◎年  代 2004
◎国  家 美国
◎类  别 剧情/爱情
◎语  言 英语
◎字  幕 中英字幕/中文字幕/英中字幕/英文字幕
◎IMDB评分 8.5/10  163,426 votes Top 250: #57
◎IMDB链接 http://www.imdb.com/title/tt0338013
◎文件格式 X264 + AC3
◎视频尺寸 1280 X 688
◎文件大小 1CD 2.05G
◎片  长 108MiN
◎导  演 米歇尔·冈瑞 Michel Gondry
◎主  演 克尔斯滕·邓斯特 Kirsten Dunst .....Mary
      凯特·温丝莱特 Kate Winslet .....Clementine Kruczynski
      金·凯瑞 Jim Carrey .....Joel Barish
      乔什·佛雷特 Josh Flitter .....Young Bully
      马克·鲁弗洛 Mark Ruffalo .....Stan
      伊利亚·伍德 Elijah Wood .....Patrick
      汤姆·威尔金森 Tom Wilkinson .....Dr. Howard Mierzwiak
      Deirdre O'Connell .....Hollis
      Lauren Adler .....Rollerblader (uncredited)
      简·亚当斯 Jane Adams .....Carrie
      Thomas Jay Ryan .....Frank
      大卫·格罗斯 David Cross .....Rob
      Gerry Robert Byrne .....Train Conductor
      Ryan Whitney .....Young Joel
      Debbon Ayer .....Joel's Mother
      Amir Ali Said .....Young Bully
      Brian Price .....Young Bully
      Paul Litowsky .....Young Bully
      Lola Daehler .....Young Clementine

◎简  介 



乔尔(金·凯瑞饰)的性格没有问题,但他的生活却出了大问题——相恋多年的女友克莱门蒂娜(凯特·温斯莱特饰)突然变成了一个对自己没有丝毫感觉的陌生人。没有第三者的介入,只因为克莱门蒂娜在一次接受精神病专家霍华德博士(汤姆·维尔金森饰)的实验中失忆了,而所失去的又偏偏是对两人来说分外珍贵的感情经历。这一切对乔尔来说无异于晴天霹雳。

  饱受情感折磨的乔尔想尽种种办法试图唤醒克莱门蒂娜那沉睡的记忆,可惜历经周折也没有任何结果,两人的距离在不断拉大。心灰意懒的乔尔最终拜访了霍华德博士,请求他也清除自己大脑中有关克莱门蒂娜的记忆,以消除那无法抑制的痛楚。

  乔尔的爱情记忆逐步消逝的同时,那早已淹没在平凡生活中的初恋激情却暗自勃发,重新焕发了光彩。而霍华德博士以及他那三个荒诞搞笑的助手(分别由克尔斯腾·邓斯特、伊利亚·伍德与马克·鲁法罗饰演)虽费尽心机,但依旧没能成功熄灭乔尔心灵深处对克莱门蒂娜那份炽热的爱情之火。美丽心灵中那最后一抹阳光被永恒地保存了下来。


幕后制作:
这是一部充满想象力、创造力、精妙的构思、包含动人思考的电影。由曾两获奥斯卡提名的好莱坞奇才查理·考夫曼编剧。42岁的金·凯瑞再次转型,出演爱情片,众明星的表演均可圈可点,而如此抢眼的人气阵容居然只有3500万美元的预算。睿智型音乐电视导演米歇尔·甘德瑞他第一次尝试叙述式长篇描写以及一系列对美丽幻想的阐述。作为MTV导演时,他也曾大量使用特效,但在这部电影作品上他的态度则完全不同,对于影片中的记忆空间的处理相当的漂亮,影片所塑造的意识空间与真实空间之间并无太大的差别,事实上他在尽可能的把意识空间营造地更真实,他认为只有真实才会带给观众呼应的感受。制作上的良苦用心还在其次,如何把众位影星融进戏中才是最难做到的。不善与演员打交道的他只能用自己的勤奋来激励他人的工作。


E:\[高清MKV收藏www.hdbird.com]\老鸟家园[bbs.hd62.com].美丽心灵的永恒阳光.720P.中英字幕\美丽心灵的永恒阳光 Eternal.Sunshine.of.the.Spotless.Mind.2004.BluRay.720p.x264.AC3-WOFEI.mkv
   General
      Complete name : E:\[高清MKV收藏www.hdbird.com]\老鸟家园[bbs.hd62.com].美丽心灵的永恒阳光.720P.中英字幕\美丽心灵的永恒阳光 Eternal.Sunshine.of.the.Spotless.Mind.2004.BluRay.720p.x264.AC3-WOFEI.mkv
      Format : Matroska
      File size : 2.05 GiB
      Duration : 1h 47mn
      Overall bit rate : 2 724 Kbps
      Encoded date : UTC 2011-01-11 14:57:25
      Writing application : mkvmerge v3.4.0 ('Rapunzel') 编译于 May 15 2010 09:38:20
      Writing library : libebml v0.8.0 + libmatroska v0.9.0
   Video #1
      ID : 1
      Format : AVC
      Format/Info : Advanced Video Codec
      Format profile : High@L4.1
      Format settings, CABAC : Yes
      Format settings, ReFrames : 3 frames
      Muxing mode : Container profile=Unknown@4.1
      Codec ID : V_MPEG4/ISO/AVC
      Duration : 1h 47mn
      Bit rate : 2 222 Kbps
      Nominal bit rate : 2 274 Kbps
      Width : 1 280 pixels
      Height : 688 pixels
      Display aspect ratio : 1.860
      Frame rate : 23.976 fps
      Resolution : 8 bits
      Colorimetry : 4:2:0
      Scan type : Progressive
      Bits/(Pixel*Frame) : 0.105
      Stream size : 1.67 GiB (81%)
      Writing library : x264 core 98 r1649 c54c47d
      Encoding settings : cabac=1 / ref=3 / deblock=1:0:0 / analyse=0x3:0x113 / me=umh / subme=7 / psy=1 / psy_rd=1.00:0.00 / mixed_ref=1 / me_range=20 / chroma_me=1 / trellis=2 / 8x8dct=1 / cqm=0 / deadzone=21,11 / fast_pskip=1 / chroma_qp_offset=-2 / threads=6 / sliced_threads=0 / nr=0 / decimate=1 / interlaced=0 / constrained_intra=0 / bframes=6 / b_pyramid=0 / b_adapt=1 / b_bias=0 / direct=3 / weightb=1 / weightp=2 / keyint=250 / keyint_min=25 / scenecut=40 / intra_refresh=0 / rc_lookahead=40 / rc=2pass / mbtree=1 / bitrate=2274 / ratetol=1.0 / qcomp=0.60 / qpmin=10 / qpmax=51 / qpstep=4 / cplxblur=20.0 / qblur=0.5 / ip_ratio=1.40 / aq=1:1.00
      Language : English
   Audio #2
      ID : 2
      Format : AC-3
      Format/Info : Audio Coding 3
      Codec ID : A_AC3
      Duration : 1h 47mn
      Bit rate mode : Constant
      Bit rate : 448 Kbps
      Channel(s) : 6 channels
      Channel positions : Front: L C R, Surround: L R, LFE
      Sampling rate : 48.0 KHz
      Stream size : 345 MiB (16%)
   Text #3
      ID : 3
      Format : SSA
      Codec ID : S_TEXT/SSA
      Codec ID/Info : Sub Station Alpha
      Title : 中英
   Text #4
      ID : 4
      Format : SSA
      Codec ID : S_TEXT/SSA
      Codec ID/Info : Sub Station Alpha
      Title : 英中
   Text #5
      ID : 5
      Format : UTF-8
      Codec ID : S_TEXT/UTF8
      Codec ID/Info : UTF-8 Plain Text
      Title : 中文
   Text #6
      ID : 6
      Format : UTF-8
      Codec ID : S_TEXT/UTF8
      Codec ID/Info : UTF-8 Plain Text
      Title : 英文



本帖隐藏的内容需要回复才可以浏览
分享到: 新浪微博新浪微博 QQ空间QQ空间 腾讯微博腾讯微博 腾讯朋友腾讯朋友

多谢楼主分享

TOP

謝謝分享!

TOP

jim carrey 的片子必看! 谢谢楼主
人生的意义不在于生命的长度,而在于生命的宽度!

TOP

这部电影立意确实新颖啊

TOP

金凯瑞的片子必看啊。。

TOP

金凯瑞的电影

TOP

让人惊喜的电影

TOP

谢谢楼主分享!!!

TOP

很不才的片子安慰二号线

TOP

返回列表