返回列表 发帖

[1080P] 灾难艺术家/大灾难家(台)/荷里活烂片王(港) The.Disaster.Artist.2017.1080p.AMZN.WEBRip.DDP5.1.x264-SiGMA



◎译  名 灾难艺术家/大灾难家(台)/荷里活烂片王(港)
◎片  名 The Disaster Artist
◎年  代 2017
◎国  家 美国
◎类  别 传记/喜剧/剧情
◎语  言 英语
◎字  幕 英文
◎IMDb评分 7.7/10 from 46648 users
◎IMDB链接 http://www.imdb.com/title/tt3521126
◎文件格式 x264 + DDP
◎视频尺寸 1920x800
◎文件大小 8.30 GiB
◎片  长 1 h 43 min
◎导  演 詹姆斯·弗兰科 James Franco
◎主  演 詹姆斯·弗兰科 James Franco
      戴夫·弗兰科 Dave Franco
      塞斯·罗根 Seth Rogen
      阿丽·格雷诺 Ari Graynor
      爱丽森·布里 Alison Brie
      杰基·韦佛 Jacki Weaver
      保罗·谢尔 Paul Scheer
      扎克·埃夫隆 Zac Efron
      乔什·哈切森 Josh Hutcherson
      琼·黛安·拉斐尔 June Diane Raphael
      梅根·莫拉莉 Megan Mullally
      杰森·曼兹沃克斯 Jason Mantzoukas
      安德鲁·桑提诺 Andrew Santino
      内森·菲尔德 Nathan Fielder
      乔·曼德 Joe Mande
      莎朗·斯通 Sharon Stone
      约翰·厄尔利 John Early
      梅兰尼·格里菲斯 Melanie Griffith
      汉尼拔·布勒斯 Hannibal Buress
      查琳·易 Charlyne Yi
      彼得·吉尔罗伊 Peter Gilroy
      劳伦·阿什 Lauren Ash
      舒格·林·彼尔德 Sugar Lyn Beard
      鲍勃·奥登科克 Bob Odenkirk
      布莱恩·赫斯基 Brian Huskey
      梅根·弗格森 Megan Ferguson
      兰道尔·朴 Randall Park
      斯蒂芬·刘 Steven Liu
      凯西·威尔逊 Casey Wilson
      杰洛德·卡尔迈克 Jerrod Carmichael
      豪莎·罗克莫雷 Xosha Roquemore
      凯莉·奥克斯福德 Kelly Oxford
      凯瑟·多诺休 Kether Donohue
      德丽·海明威 Dree Hemingway
      安吉琳 Angelyne
      汤姆·佛朗哥 Tom Franco
      佐伊·达奇 Zoey Deutch
      伊克·巴里霍尔兹 Ike Barinholtz
      凯文·史密斯 Kevin Smith
      J·J·艾布拉姆斯 J.J. Abrams
      科甘-迈克尔·凯 Keegan-Michael Key
      亚当·斯科特 Adam Scott
      丹尼·麦克布莱德 Danny McBride
      克里斯汀·贝尔 Kristen Bell
      贾德·阿帕图 Judd Apatow
      丽兹·卡潘 Lizzy Caplan
      托米·韦素 Tommy Wiseau



◎简  介



  该片根据同名传记小说《灾难艺术家》改编,讲述导演托米·韦素拍摄邪典烂片《房间》的全过程

获奖记录

奥斯卡金像奖(2018;第90届)
提名
·奥斯卡奖-最佳改编剧本斯考特·诺伊施塔特 Scott Neustadter  迈克尔·H·韦伯 Michael H. Weber  


美国金球奖(2018;第75届)
获奖
·电影类-音乐喜剧类最佳男主角詹姆斯·弗兰科 James Franco  
提名
·电影类-音乐喜剧类最佳影片

多伦多国际电影节(2017;第42届)
提名
·午夜疯狂单元
Video
ID                                       : 1
Format                                   : AVC
Format/Info                              : Advanced Video Codec
Format profile                           : High@L4
Format settings                          : CABAC / 4 Ref Frames
Format settings, CABAC                   : Yes
Format settings, ReFrames                : 4 frames
Codec ID                                 : V_MPEG4/ISO/AVC
Duration                                 : 1 h 43 min
Bit rate mode                            : Variable
Bit rate                                 : 10.8 Mb/s
Maximum bit rate                         : 15.0 Mb/s
Width                                    : 1 920 pixels
Height                                   : 800 pixels
Display aspect ratio                     : 2.40:1
Frame rate mode                          : Constant
Frame rate                               : 23.976 (24000/1001) FPS
Color space                              : YUV
Chroma subsampling                       : 4:2:0
Bit depth                                : 8 bits
Scan type                                : Progressive
Bits/(Pixel*Frame)                       : 0.293
Stream size                              : 7.83 GiB (94%)
Default                                  : Yes
Forced                                   : No
Color range                              : Limited
Color primaries                          : BT.709
Transfer characteristics                 : BT.709
Matrix coefficients                      : BT.709

Audio
ID                                       : 2
Format                                   : E-AC-3
Format/Info                              : Enhanced Audio Coding 3
Codec ID                                 : A_EAC3
Duration                                 : 1 h 43 min
Bit rate mode                            : Constant
Bit rate                                 : 640 kb/s
Channel(s)                               : 6 channels
Channel positions                        : Front: L C R, Side: L R, LFE
Sampling rate                            : 48.0 kHz
Frame rate                               : 187.500 FPS (256 SPF)
Compression mode                         : Lossy
Stream size                              : 475 MiB (6%)
Language                                 : English
Service kind                             : Complete Main
Default                                  : Yes
Forced                                   : No

Text
ID                                       : 3
Format                                   : UTF-8
Codec ID                                 : S_TEXT/UTF8
Codec ID/Info                            : UTF-8 Plain Text
Duration                                 : 1 h 43 min
Bit rate                                 : 92 b/s
Count of elements                        : 2239
Stream size                              : 69.8 KiB (0%)
Title                                    : English
Language                                 : English
Default                                  : No
Forced                                   : No










The.Disaster.Artist.2017.1080p.AMZN.WEBRip.DDP5.1.x264-SiGMA.torrent (83.53 KB)

分享到: 新浪微博新浪微博 QQ空间QQ空间 腾讯微博腾讯微博 腾讯朋友腾讯朋友

多谢超版分享

TOP

感谢版主分享
花落滿懷  暗香盈袖  淡淡歡喜淡淡愁

TOP

感谢楼主分享

TOP

返回列表