返回列表 发帖

[1080P] 髓骨 Marrowbone.2017.1080p.BluRay.x264.DTS-FGT



◎译  名 髓骨
◎片  名 The Gateway
◎年  代 2017
◎国  家 西班牙
◎类  别 剧情 / 惊悚 / 恐怖
◎语  言 英语
◎字  幕 N/A
◎IMDb评分 6.7/10 from 1,239 users
◎IMDB链接 http://www.imdb.com/title/tt5886440/
◎文件格式 x264 + DTS
◎视频尺寸 1920x800
◎文件大小 10.28 GiB
◎片  长 1 h 50 min
◎导  演 塞尔希奥·G·桑切斯 Sergio G. Sánchez
◎主  演 安雅·泰勒-乔伊 Anya Taylor-Joy
       查理·希顿 Charlie Heaton
       乔治·麦凯 George MacKay
      

◎简  介


  兄弟姐妹四人在母亲去世后,去到一座老房子寻求庇护,逐渐发现房子背后隐藏的险恶秘密。
Video
ID                                       : 1
Format                                   : AVC
Format/Info                              : Advanced Video Codec
Format profile                           : High@L4.1
Format settings                          : CABAC / 4 Ref Frames
Format settings, CABAC                   : Yes
Format settings, ReFrames                : 4 frames
Codec ID                                 : V_MPEG4/ISO/AVC
Duration                                 : 1 h 50 min
Bit rate                                 : 11.8 Mb/s
Nominal bit rate                         : 12.4 Mb/s
Width                                    : 1 920 pixels
Height                                   : 800 pixels
Display aspect ratio                     : 2.40:1
Frame rate mode                          : Constant
Frame rate                               : 23.976 (24000/1001) FPS
Color space                              : YUV
Chroma subsampling                       : 4:2:0
Bit depth                                : 8 bits
Scan type                                : Progressive
Bits/(Pixel*Frame)                       : 0.320
Stream size                              : 9.11 GiB (89%)
Title                                    : Marrowbone.2017.1080p.BluRay.x264.DTS-FGT
Writing library                          : x264 core 130 r2273 b3065e6
Encoding settings                        : cabac=1 / ref=1 / deblock=1:0:0 / analyse=0x3:0x113 / me=hex / subme=2 / psy=1 / psy_rd=1.00:0.00 / mixed_ref=0 / me_range=16 / chroma_me=1 / trellis=0 / 8x8dct=1 / cqm=0 / deadzone=21,11 / fast_pskip=1 / chroma_qp_offset=0 / threads=6 / lookahead_threads=2 / sliced_threads=0 / nr=0 / decimate=1 / interlaced=0 / bluray_compat=0 / constrained_intra=0 / bframes=3 / b_pyramid=2 / b_adapt=1 / b_bias=0 / direct=1 / weightb=1 / open_gop=0 / weightp=1 / keyint=240 / keyint_min=24 / scenecut=40 / intra_refresh=0 / rc_lookahead=10 / rc=abr / mbtree=1 / bitrate=12402 / ratetol=1.0 / qcomp=0.60 / qpmin=0 / qpmax=69 / qpstep=4 / vbv_maxrate=62500 / vbv_bufsize=78125 / nal_hrd=none / ip_ratio=1.40 / aq=1:1.00
Language                                 : English
Default                                  : Yes
Forced                                   : No
Color range                              : Limited
Color primaries                          : BT.709
Transfer characteristics                 : BT.709
Matrix coefficients                      : BT.709

Audio
ID                                       : 2
Format                                   : DTS
Format/Info                              : Digital Theater Systems
Codec ID                                 : A_DTS
Duration                                 : 1 h 50 min
Bit rate mode                            : Constant
Bit rate                                 : 1 509 kb/s
Channel(s)                               : 6 channels
Channel positions                        : Front: L C R, Side: L R, LFE
Sampling rate                            : 48.0 kHz
Frame rate                               : 93.750 FPS (512 SPF)
Bit depth                                : 24 bits
Compression mode                         : Lossy
Stream size                              : 1.17 GiB (11%)
Title                                    : Marrowbone.2017.1080p.BluRay.x264.DTS-FGT
Language                                 : English
Default                                  : Yes
Forced                                   : No










Marrowbone.2017.1080p.BluRay.x264.DTS-FGT.torrent (51.91 KB)

分享到: 新浪微博新浪微博 QQ空间QQ空间 腾讯微博腾讯微博 腾讯朋友腾讯朋友

多谢超版分享

TOP

感谢版主分享
花落滿懷  暗香盈袖  淡淡歡喜淡淡愁

TOP

感谢楼主分享

TOP

返回列表