返回列表 发帖

[1080P] 伯德小姐/伯德夫人/柏德小姐/淑女鸟(台) Lady.Bird.2017.1080p.BluRay.x264.DTS-HDC



◎译  名 伯德小姐/伯德夫人/柏德小姐/淑女鸟(台)
◎片  名 Lady Bird
◎年  代 2017
◎国  家 美国
◎类  别 剧情/家庭
◎语  言 英语
◎字  幕 英文
◎IMDb评分 7.8/10 from 46780 users
◎IMDB链接 http://www.imdb.com/title/tt4925292
◎文件格式 x264 + DTS
◎视频尺寸 1920x1036
◎文件大小 8.55 GiB
◎片  长 1 h 33 min
◎导  演 格蕾塔·葛韦格 Greta Gerwig
◎主  演 西尔莎·罗南 Saoirse Ronan
      劳里·梅特卡夫 Laurie Metcalf
      崔西·莱茨 Tracy Letts
      卢卡斯·赫奇斯 Lucas Hedges
      蒂莫西·柴勒梅德 Timothée Chalamet
      比妮·费尔德斯坦 Beanie Feldstein
      罗伊丝·史密斯 Lois Smith
      斯蒂芬·亨德森 Stephen Henderson
      奥德娅·拉什 Odeya Rush
      乔丹·罗德里格斯 Jordan Rodrigues
      凯瑟琳·牛顿 Kathryn Newton
      约翰·卡尔纳 John Karna
      杰克·麦克道曼 Jake McDorman
      劳拉·马兰洛 Laura Marano
      安迪·巴克利 Andy Buckley
      丹尼尔·祖瓦图 Daniel Zovatto
      克里森·克拉克 Kristen Cloke
      丹妮尔·麦克唐纳 Danielle Macdonald
      鲍勃·斯蒂芬森 Bob Stephenson
      路易莎·李 Luisa Lee
      伦敦·托尔 London Thor
      本·康尼斯伯格 Ben Konigsberg
      维克托·沃尔夫 Victor Wolf

◎简  介

  影片讲述生活在加州北部城市,萨克拉门托的女孩Christine高三时亲情,友情与爱情的故事。Christine为自己取名伯德小姐,一心想要离开加州去往东部读书。然而本不宽裕的家庭又逢父亲失业,更是雪上加霜。伯德小姐继承了母亲的强硬性格,和母亲在生活的各方面发生冲突,但两 人在内心深处却又紧密相连。升入高三的伯德小姐在参演学校音乐剧时对剧组的男主演暗生情愫……

花絮

.这是格蕾塔·葛韦格的第二部导演作品,她之前是女演员和编剧,曾出演《弗兰西丝·哈》《第一夫人》《爱在罗马》,执导独立电影《无数个夜晚和周末》。

.故事发生在2002-2003年的加州州府萨克拉门托,1983年出生的导演格蕾塔·葛韦格的家乡。格蕾塔也是在纽约读的大学,显然电影带有浓厚的自传性质。

.片中Lady Bird(淑女鸟)的真名叫克里斯汀·麦克弗森,克里斯汀是导演格蕾塔·葛韦格妈妈的姓,她的妈妈当年也是护士。

.影片曾以196个评价全部新鲜,100%的好评率打败《玩具总动员2》成为烂番茄最受好评电影,但后来好评率跌到99%,210个评价中唯一差评来自ColeSmithey.com

.2015年罗南在多伦多电影节宣传《布鲁克林》时遇到导演格蕾塔,俩人在酒店房间一起朗读剧本,当时导演就确定这就是她要找的女主角淑女鸟。

.格蕾塔·葛韦格说希望电影多一些罗南的特写,因为这姑娘实在太漂亮了。

.拍摄时女主角西尔莎·罗南和扮演她好友的比妮·费尔德斯坦刚好用同一款指甲油,本来要更好,但导演决定干脆就这样演下去。

.扮演Lady Bird好友朱莉的比妮·费尔德斯坦是喜剧男星乔纳·希尔的妹妹。

.电影中高中生试镜唱的音乐剧歌曲由史蒂芬·松德海姆原创,他也是音乐歌舞片《魔法黑森林》的原创音乐

.影片最初剧本厚达350页,拍成电影会将近6个小时长,2013年底剧本最终定稿。

.卢卡斯·赫奇斯和西尔莎·罗南曾在《布达佩斯大饭店》中合作过,《伯德小姐》片中出现了该片导演韦斯·安德森《青春年少》的海报。

.男配提莫西·查拉梅刚好在另外一部热门片《请以你的名字呼唤我》中担任男主,该片和《伯德小姐》将在今年奥斯卡中展开竞争。

.提莫西·查拉梅现实生活中曾在哥伦比亚大学就读一年,电影中Lady Bird申请哥伦比亚大学被拒。


获奖记录

奥斯卡金像奖(2018;第90届)
提名
·奥斯卡奖-最佳影片斯科特·鲁丁 Scott Rudin   Eli Bush   Evelyn O'Neill  
·奥斯卡奖-最佳导演格蕾塔·葛韦格 Greta Gerwig  
·奥斯卡奖-最佳女主角西尔莎·罗南 Saoirse Ronan  
·奥斯卡奖-最佳女配角劳里·梅特卡夫 Laurie Metcalf  
·奥斯卡奖-最佳原创剧本格蕾塔·葛韦格 Greta Gerwig  

美国金球奖(2018;第75届)
获奖
·电影类-音乐喜剧类最佳女主角西尔莎·罗南 Saoirse Ronan  
·电影类-音乐喜剧类最佳影片
提名
·电影类-最佳编剧
·电影类-最佳女配角劳里·梅特卡夫 Laurie Metcal
ideo
ID                                       : 1
Format                                   : AVC
Format/Info                              : Advanced Video Codec
Format profile                           : High@L4.1
Format settings                          : CABAC / 4 Ref Frames
Format settings, CABAC                   : Yes
Format settings, ReFrames                : 4 frames
Codec ID                                 : V_MPEG4/ISO/AVC
Duration                                 : 1 h 34 min
Bit rate                                 : 11.5 Mb/s
Width                                    : 1 920 pixels
Height                                   : 1 036 pixels
Display aspect ratio                     : 1.85:1
Frame rate mode                          : Constant
Frame rate                               : 23.976 (24000/1001) FPS
Color space                              : YUV
Chroma subsampling                       : 4:2:0
Bit depth                                : 8 bits
Scan type                                : Progressive
Bits/(Pixel*Frame)                       : 0.241
Stream size                              : 7.56 GiB (88%)
Title                                    : Lady.Bird.2017.1080p.BluRay.x264.DTS-HDC
Writing library                          : x264 core 148 r2665kMod a01e339
Encoding settings                        : cabac=1 / ref=4 / deblock=1:-3:-3 / analyse=0x3:0x133 / me=umh / subme=11 / psy=1 / fade_compensate=0.00 / psy_rd=1.05:0.00 / mixed_ref=1 / me_range=48 / chroma_me=1 / trellis=2 / 8x8dct=1 / cqm=0 / deadzone=21,11 / fast_pskip=0 / chroma_qp_offset=-2 / threads=24 / lookahead_threads=4 / sliced_threads=0 / nr=0 / decimate=0 / interlaced=0 / bluray_compat=0 / constrained_intra=0 / fgo=0 / bframes=8 / b_pyramid=2 / b_adapt=2 / b_bias=0 / direct=3 / weightb=1 / open_gop=0 / weightp=2 / keyint=240 / keyint_min=24 / scenecut=40 / intra_refresh=0 / rc=2pass / mbtree=0 / bitrate=11500 / ratetol=1.0 / qcomp=0.70 / qpmin=0 / qpmax=69 / qpstep=4 / cplxblur=20.0 / qblur=0.5 / ip_ratio=1.20 / pb_ratio=1.20 / aq=3:0.80
Default                                  : Yes
Forced                                   : No

Audio
ID                                       : 2
Format                                   : DTS
Format/Info                              : Digital Theater Systems
Codec ID                                 : A_DTS
Duration                                 : 1 h 33 min
Bit rate mode                            : Constant
Bit rate                                 : 1 509 kb/s
Channel(s)                               : 6 channels
Channel positions                        : Front: L C R, Side: L R, LFE
Sampling rate                            : 48.0 kHz
Frame rate                               : 93.750 FPS (512 SPF)
Bit depth                                : 24 bits
Compression mode                         : Lossy
Stream size                              : 1 011 MiB (12%)
Title                                    : Lady.Bird.2017.1080p.BluRay.x264.DTS-HDC
Language                                 : English
Default                                  : Yes
Forced                                   : No

Text
ID                                       : 3
Format                                   : UTF-8
Codec ID                                 : S_TEXT/UTF8
Codec ID/Info                            : UTF-8 Plain Text
Duration                                 : 1 h 27 min
Bit rate                                 : 75 b/s
Count of elements                        : 1429
Stream size                              : 48.6 KiB (0%)
Language                                 : English
Default                                  : Yes
Forced                                   : No

Menu
00:00:00.000                             : en:00:00:00.000
00:05:59.651                             : en:00:05:59.651
00:11:17.427                             : en:00:11:17.427
00:18:20.391                             : en:00:18:20.391
00:22:15.960                             : en:00:22:15.960
00:27:46.290                             : en:00:27:46.290
00:33:56.284                             : en:00:33:56.284
00:40:33.639                             : en:00:40:33.639
00:45:51.040                             : en:00:45:51.040
00:51:02.017                             : en:00:51:02.017
00:57:29.071                             : en:00:57:29.071
01:03:11.371                             : en:01:03:11.371
01:08:32.358                             : en:01:08:32.358
01:14:06.066                             : en:01:14:06.066
01:21:17.039                             : en:01:21:17.039
01:25:26.455                             : en:01:25:26.455










Lady.Bird.2017.1080p.BluRay.x264.DTS-HDC.torrent (86.01 KB)

分享到: 新浪微博新浪微博 QQ空间QQ空间 腾讯微博腾讯微博 腾讯朋友腾讯朋友

多谢超版分享

TOP

多谢楼主分享

TOP

感谢版主分享
花落滿懷  暗香盈袖  淡淡歡喜淡淡愁

TOP

返回列表