返回列表 发帖

[1080P] 复仇者联盟3:无限战争/复仇者联盟3:无限之战(港) Avengers.Infinity.War.2018.1080p.WEB-DL.DD5.1.H264-FGT




◎译  名 复仇者联盟3:无限战争/复仇者联盟3:无限之战(港)/复仇者联盟:无限之战(台)
◎片  名 Avengers: Infinity War
◎年  代 2018
◎国  家 美国
◎类  别 动作/冒险/奇幻
◎语  言 英语
◎IMDb评分 8.7/10 from 407023 users
◎IMDB链接 https://www.imdb.com/title/tt4154756/
◎文件格式 H264 + DD5.1
◎视频尺寸 1920x804
◎文件大小 5.13 GiB
◎片  长 2 h 29 min
◎导  演 安东尼·卢素 Anthony Russo
      乔·卢素 Joe Russo
◎主  演 小罗伯特·唐尼 Robert Downey Jr.
      克里斯·海姆斯沃斯 Chris Hemsworth
      克里斯·埃文斯 Chris Evans
      马克·鲁弗洛 Mark Ruffalo
      乔什·布洛林 Josh Brolin
      佐伊·索尔达娜 Zoe Saldana
      本尼迪克特·康伯巴奇 Benedict Cumberbatch
      克里斯·普拉特 Chris Pratt
      汤姆·霍兰德 Tom Holland
      伊丽莎白·奥尔森 Elizabeth Olsen
      保罗·贝坦尼 Paul Bettany
      斯嘉丽·约翰逊 Scarlett Johansson
      查德维克·博斯曼 Chadwick Boseman
      塞巴斯蒂安·斯坦 Sebastian Stan
      唐·钱德尔 Don Cheadle
      汤姆·希德勒斯顿 Tom Hiddleston
      安东尼·麦凯 Anthony Mackie
      本尼迪克特·王 Benedict Wong
      戴夫·巴蒂斯塔 Dave Bautista
      布莱德利·库珀 Bradley Cooper
      范·迪塞尔 Vin Diesel
      凯伦·吉兰 Karen Gillan
      利蒂希娅·赖特 Letitia Wright
      庞·克莱门捷夫 Pom Klementieff
      凯莉·库恩 Carrie Coon
      汤姆-沃恩-劳勒 Tom Vaughan-Lawlor
      海登·瓦尔希 Hynden Walch
      迈克尔·詹姆斯·肖 Michael James Shaw
      泰瑞·诺塔里 Terry Notary
      本尼西奥·德尔·托罗 Benicio Del Toro
      彼特·丁拉基 Peter Dinklage
      罗斯·马昆德 Ross Marquand
      丹娜·奎里拉 Danai Gurira
      温斯顿·杜克 Winston Duke
      弗洛伦丝·卡松巴 Florence Kasumba
      塞缪尔·杰克逊 Samuel L. Jackson
      雅各布·巴特朗 Jacob Batalon
      斯坦·李 Stan Lee

◎简  介

  复仇者联盟的一众超级英雄,必须抱着牺牲一切的信念,与史上最强大反派灭霸殊死一搏,阻止其摧毁宇宙的邪恶计划。

花絮

.《复仇者联盟3:无限战争》是漫威电影宇宙10周年历史性集结,将作为漫威宇宙第三阶段收官之作。

.《复仇者联盟3》是有史以来第一部全片使用IMAX摄影机拍摄的好莱坞商业大片。在IMAX影院放映时,全片以上下扩展至IMAX 1.9:1的宽高比来呈现。

.《复联3》的预售票房不仅超过了此前7部漫威电影预售票房的总和,还一口气将《黑豹》在年初创造的最高预售纪录提高了整整一倍。

.《复仇者联盟3》包含2680个特效镜头。其实整部影片只有4个镜头没带特效。电影整个特效团队涉及上千人。

.参与《复联3》特效制作的公司,包括工业光魔、维塔工作室、双重否定(DNEG)、Method Studios、Framestore、Cinesite、数字王国、RISE等等,几乎囊括世界所有一流特效工作室。

.《复联3》中有9个全特效制作的重要角色,其中火箭浣熊、格鲁特和灭霸就拥有超过600个特效镜头。

.全片几乎所有的灭霸镜头都是由香港特效公司数字王国打造的,谢霆锋是该公司大中华区主席。

.灭霸对视效团队来说是最大的挑战,他们也承担了很大的压力,很早之前他们就对灭霸角色做了各种尝试,而最终通过特效呈现出来的造型、装备、招式、破坏力都令乔什布洛林啧啧称奇。

.钢铁侠和蜘蛛侠在泰坦星上与灭霸的战斗动画是无法用动作捕捉采集的,因为缺少那种超级英雄的速度感和重量感还有打击感,所以还是用传统的手key动画来完成。

.电影开场钢铁侠和小辣椒在中央公园跑步的戏份是在亚特兰大的一个公园中拍摄的,后期用特效作出中央公园的背景。
Video
ID : 1
Format : AVC
Format/Info : Advanced Video Codec
Format profile : High@L4
Format settings : CABAC / 5 Ref Frames
Format settings, CABAC : Yes
Format settings, ReFrames : 5 frames
Codec ID : V_MPEG4/ISO/AVC
Duration : 2 h 29 min
Bit rate : 4 520 kb/s
Width : 1 920 pixels
Height : 804 pixels
Display aspect ratio : 2.40:1
Frame rate mode : Constant
Frame rate : 23.976 FPS
Color space : YUV
Chroma subsampling : 4:2:0
Bit depth : 8 bits
Scan type : Progressive
Bits/(Pixel*Frame) : 0.122
Stream size : 4.73 GiB (92%)
Title : Avengers.Infinity.War.2018.1080p.WEB-DL.DD5.1.H264-FGT
Language : English
Default : Yes
Forced : No
Color range : Limited
Color primaries : BT.709
Transfer characteristics : BT.709
Matrix coefficients : BT.709

Audio
ID : 2
Format : AC-3
Format/Info : Audio Coding 3
Codec ID : A_AC3
Duration : 2 h 29 min
Bit rate mode : Constant
Bit rate : 384 kb/s
Channel(s) : 6 channels
Channel positions : Front: L C R, Side: L R, LFE
Sampling rate : 48.0 kHz
Frame rate : 31.250 FPS (1536 SPF)
Bit depth : 16 bits
Compression mode : Lossy
Stream size : 410 MiB (8%)
Title : Avengers.Infinity.War.2018.1080p.WEB-DL.DD5.1.H264-FGT
Language : English
Service kind : Complete Main
Default : Yes
Forced : No

Menu
00:00:00.000 : en:Thanos Is Coming
00:11:28.000 : en:Infinity Stones
00:18:14.000 : en:Fight For The Time Stone
00:27:23.000 : en:Who The Hell Are You Guys?
00:35:48.000 : en:Wanda And Vision
00:42:23.000 : en:Knowhere
00:54:12.000 : en:Avengers Assemble
00:59:36.000 : en:Take The Fight To Him
01:05:07.000 : en:The Soul Stone
01:10:53.000 : en:Nidavellir
01:17:07.000 : en:Titan
01:24:14.000 : en:Vormir
01:31:08.000 : en:\"Wakanda Forever\"
01:42:00.000 : en:Stormbreaker
01:45:57.000 : en:Titan Confrontation
01:53:04.000 : en:A Vision Situation
01:58:53.000 : en:The Time Stone
02:03:58.000 : en:The End Game
02:11:13.000 : en:Aftermath
02:17:31.000 : en:End Credits





Avengers.Infinity.War.2018.1080p.WEB-DL.DD5.1.H264-FGT.torrent (51.82 KB)

分享到: 新浪微博新浪微博 QQ空间QQ空间 腾讯微博腾讯微博 腾讯朋友腾讯朋友

终于出来了,感谢分享。

TOP

多谢超版分享

TOP

超版牛!爱你

TOP

多谢分享

TOP

多谢超版分享!!!!

TOP

终于等到好版本了!感谢分享!

TOP

看看~
爱祖国,爱人民/爱mm,爱钞票

TOP

感谢发布

TOP

感谢发布
面对敌人的严刑拷打,我就三个字:我都说……

TOP

返回列表