返回列表 发帖

[1080P] 泄密者/泄密者们 The.Leakers.2018.CHINESE.1080p.BluRay.x264.TrueHD.5.1-CHD




◎译  名 泄密者/泄密者们
◎片  名 The Leaker
◎年  代 2018
◎国  家 中国/中国香港
◎类  别 犯罪/动作/悬疑
◎语  言 粤语/普通话
◎字  幕 简体中文/繁体中文
◎IMDb评分 5.1/10 from 75 users
◎IMDB链接 http://www.imdb.com/title/tt8490838/
◎文件格式 x264 + DTS
◎视频尺寸 1920x806
◎文件大小 16.57 GiB
◎片  长 1 h 42 min
◎导  演 邱礼涛 Herman Yau
◎主  演 吴镇宇 Francis Ng
      张智霖 Julian Cheung
      佘诗曼 Charmaine Sheh
      周秀娜 Chrissie Chaw
      郑则仕 Kent Cheng
      刘浩龙 Wilfred Lau
      张继聪 Louis Cheung
      李灿森 Sam Lee
      诗雅 Michelle Wai
      杨柳青 Wiyona Yeung
      灰熊 Kumer
      林嘉华 Dominic Lam


◎简  介

  马来西亚发生高危的变种传染病,医生大胆给自愿病人使用未经官方认可的新药。当地一新闻记者突然堕楼身亡,接连药业公司AMANAH的创办人兼董事长的儿子离奇自杀后,其妻急赴香港,警长李永勤与香港警察王大伟合作追查。王大伟收到一条视频,里面自称“泄密者”的神秘组织透露了药业界的黑幕,更指控AMANAH藉着瘟疫大发灾难财。“泄密者”邀约香港日报记者阮嘉岚会面。李永勤和王大伟追踪到阮嘉岚与泄密者的见面地点……
Video
ID : 1
Format : AVC
Format/Info : Advanced Video Codec
Format profile : High@L4.1
Format settings : CABAC / 4 Ref Frames
Format settings, CABAC : Yes
Format settings, ReFrames : 4 frames
Codec ID : V_MPEG4/ISO/AVC
Duration : 1 h 42 min
Bit rate : 18.4 Mb/s
Width : 1 920 pixels
Height : 806 pixels
Display aspect ratio : 2.40:1
Frame rate mode : Constant
Frame rate : 24.000 FPS
Color space : YUV
Chroma subsampling : 4:2:0
Bit depth : 8 bits
Scan type : Progressive
Bits/(Pixel*Frame) : 0.495
Stream size : 13.2 GiB (80%)
Writing library : x264 core 155 r2867+74 66b5600 t_mod_Custom_2 [8-bit@all X86_64]
Encoding settings : cabac=1 / ref=4 / deblock=1:-3:-3 / analyse=0x3:0x113 / me=umh / subme=10 / psy=1 / fade_compensate=0.00 / psy_rd=0.90:0.10 / mixed_ref=1 / me_range=48 / chroma_me=1 / trellis=2 / 8x8dct=1 / cqm=0 / deadzone=21,11 / fast_pskip=0 / chroma_qp_offset=-2 / threads=18 / lookahead_threads=3 / sliced_threads=0 / nr=0 / decimate=1 / interlaced=0 / bluray_compat=0 / constrained_intra=0 / fgo=0 / bframes=8 / b_pyramid=2 / b_adapt=2 / b_bias=0 / direct=3 / weightb=1 / open_gop=0 / weightp=2 / keyint=250 / keyint_min=24 / scenecut=40 / intra_refresh=0 / rc_lookahead=40 / rc=crf / mbtree=0 / crf=20.0000 / qcomp=0.70 / qpmin=0:0:0 / qpmax=69:69:69 / qpstep=4 / vbv_maxrate=35000 / vbv_bufsize=35000 / crf_max=0.0 / nal_hrd=none / filler=0 / ip_ratio=1.40 / pb_ratio=1.30 / aq=3:0.90 / aq-sensitivity=10.00 / aq-factor=1.00:1.00:1.00 / aq2=0 / aq3=2:[0.50:0.50]:[0.50:0.50]:[0.50:0.50]:[0.50:0.50] / aq3-sensitivity=10.00 / aq3-factor=[1.00:1.00]:[1.00:1.00]:[1.00:1.00] / aq3-boundary=192:64:24
Language : Chinese
Default : Yes
Forced : No
Color range : Limited
Matrix coefficients : BT.709

Audio #1
ID : 2
Format : TrueHD
Codec ID : A_TRUEHD
Duration : 1 h 42 min
Bit rate mode : Variable
Bit rate : 2 265 kb/s
Maximum bit rate : 3 882 kb/s
Channel(s) : 6 channels
Channel positions : Front: L C R, Side: L R, LFE
Sampling rate : 96.0 kHz
Frame rate : 2 400.000 FPS (40 SPF)
Compression mode : Lossless
Stream size : 1.63 GiB (10%)
Language : Chinese
Default : Yes
Forced : No

Audio #2
ID : 3
Format : TrueHD
Codec ID : A_TRUEHD
Duration : 1 h 42 min
Bit rate mode : Variable
Bit rate : 2 263 kb/s
Maximum bit rate : 3 888 kb/s
Channel(s) : 6 channels
Channel positions : Front: L C R, Side: L R, LFE
Sampling rate : 96.0 kHz
Frame rate : 2 400.000 FPS (40 SPF)
Compression mode : Lossless
Stream size : 1.62 GiB (10%)
Language : Chinese
Default : No
Forced : No

Text #1
ID : 4
Format : PGS
Muxing mode : zlib
Codec ID : S_HDMV/PGS
Codec ID/Info : Picture based subtitle format used on BDs/HD-DVDs
Duration : 1 h 36 min
Bit rate : 38.7 kb/s
Count of elements : 1984
Stream size : 26.7 MiB (0%)
Language : Chinese
Default : Yes
Forced : No

Text #2
ID : 5
Format : PGS
Muxing mode : zlib
Codec ID : S_HDMV/PGS
Codec ID/Info : Picture based subtitle format used on BDs/HD-DVDs
Duration : 1 h 35 min
Bit rate : 39.8 kb/s
Count of elements : 1979
Stream size : 27.1 MiB (0%)
Language : Chinese
Default : No
Forced : No

Menu
00:00:00.000 : en:00:00:00.000
00:08:54.917 : en:00:08:54.917
00:16:41.333 : en:00:16:41.333
00:25:53.583 : en:00:25:53.583
00:33:45.583 : en:00:33:45.583
00:42:34.417 : en:00:42:34.417
00:52:55.667 : en:00:52:55.667
00:59:50.458 : en:00:59:50.458
01:08:23.417 : en:01:08:23.417
01:17:30.208 : en:01:17:30.208
01:26:12.708 : en:01:26:12.708
01:35:03.250 : en:01:35:03.250





The.Leakers.2018.CHINESE.1080p.BluRay.x264.TrueHD.5.1-CHD.torrent (83.41 KB)

分享到: 新浪微博新浪微博 QQ空间QQ空间 腾讯微博腾讯微博 腾讯朋友腾讯朋友

多谢我们的超版分享

TOP

多谢超版分享

TOP

感谢版主分享
花落滿懷  暗香盈袖  淡淡歡喜淡淡愁

TOP

返回列表