返回列表 发帖

[1080P] 黄飞鸿之南北英雄/黄飞鸿之生化人 The.Unity.Of.Heroes.2018.CHINESE.1080p.BluRay.x264.TrueHD5.1-CHD



◎译  名 黄飞鸿之南北英雄/黄飞鸿之生化人
◎片  名 The Unity Of Heroes
◎年  代 2018
◎国  家 中国
◎类  别 动作
◎语  言 普通话/粤语
◎字  幕 简体中文/繁体中文
◎IMDb评分 6.8/10 from 9 users
◎IMDB链接 https://www.imdb.com/title/tt8787116/
◎文件格式 x264 + DTS
◎视频尺寸 1920x836
◎文件大小 9.22 GiB
◎片  长 1 h 43 min
◎导  演 林珍钊
◎主  演 赵文卓 Man Cheuk Chiu
      维妮
      唐文龙 Michael Tong
      李炳渊 Bingyuan Li
      李璐兵
      陈辰
      魏小欢
      许政国 Zhengguo Xu

◎简  介

  晚清时期,外来入侵,国家内忧外患,民不聊生。一代宗师黄飞鸿辗转于北拳的挑衅与洋人入侵的双重忧患中,面对列强的压迫,依旧弘扬中国文化,保护民族信仰,与外来者的打击坚持抗争。突如其来的灾难,一夜之间让看似风平浪静的佛山有了翻天覆地的变化,归根结底,这一切都源于一场蓄谋已久的阴谋..........

Video
ID : 1
Format : AVC
Format/Info : Advanced Video Codec
Format profile : High@L4.1
Format settings : CABAC / 4 Ref Frames
Format settings, CABAC : Yes
Format settings, ReFrames : 4 frames
Codec ID : V_MPEG4/ISO/AVC
Duration : 1 h 43 min
Bit rate : 8 373 kb/s
Width : 1 920 pixels
Height : 836 pixels
Display aspect ratio : 2.25:1
Frame rate mode : Constant
Frame rate : 25.000 FPS
Color space : YUV
Chroma subsampling : 4:2:0
Bit depth : 8 bits
Scan type : Progressive
Bits/(Pixel*Frame) : 0.209
Stream size : 6.06 GiB (66%)
Writing library : x264 core 155 r2867+74 66b5600 t_mod_Custom_2 [8-bit@all X86_64]
Encoding settings : cabac=1 / ref=4 / deblock=1:-3:-3 / analyse=0x3:0x113 / me=umh / subme=10 / psy=1 / fade_compensate=0.00 / psy_rd=0.90:0.10 / mixed_ref=1 / me_range=48 / chroma_me=1 / trellis=2 / 8x8dct=1 / cqm=0 / deadzone=21,11 / fast_pskip=0 / chroma_qp_offset=-2 / threads=18 / lookahead_threads=3 / sliced_threads=0 / nr=0 / decimate=1 / interlaced=0 / bluray_compat=0 / constrained_intra=0 / fgo=0 / bframes=8 / b_pyramid=2 / b_adapt=2 / b_bias=0 / direct=3 / weightb=1 / open_gop=0 / weightp=2 / keyint=250 / keyint_min=25 / scenecut=40 / intra_refresh=0 / rc_lookahead=40 / rc=crf / mbtree=0 / crf=18.0000 / qcomp=0.70 / qpmin=0:0:0 / qpmax=69:69:69 / qpstep=4 / vbv_maxrate=35000 / vbv_bufsize=35000 / crf_max=0.0 / nal_hrd=none / filler=0 / ip_ratio=1.40 / pb_ratio=1.30 / aq=3:0.90 / aq-sensitivity=10.00 / aq-factor=1.00:1.00:1.00 / aq2=0 / aq3=2:[0.50:0.50]:[0.50:0.50]:[0.50:0.50]:[0.50:0.50] / aq3-sensitivity=10.00 / aq3-factor=[1.00:1.00]:[1.00:1.00]:[1.00:1.00] / aq3-boundary=192:64:24
Language : Chinese
Default : Yes
Forced : No
Color range : Limited
Matrix coefficients : BT.709

Audio #1
ID : 2
Format : TrueHD
Codec ID : A_TRUEHD
Duration : 1 h 43 min
Bit rate mode : Variable
Bit rate : 2 092 kb/s
Maximum bit rate : 2 988 kb/s
Channel(s) : 6 channels
Channel positions : Front: L C R, Side: L R, LFE
Sampling rate : 96.0 kHz
Frame rate : 2 400.000 FPS (40 SPF)
Compression mode : Lossless
Stream size : 1.51 GiB (16%)
Language : Chinese
Default : Yes
Forced : No

Audio #2
ID : 3
Format : TrueHD
Codec ID : A_TRUEHD
Duration : 1 h 43 min
Bit rate mode : Variable
Bit rate : 2 120 kb/s
Maximum bit rate : 3 246 kb/s
Channel(s) : 6 channels
Channel positions : Front: L C R, Side: L R, LFE
Sampling rate : 96.0 kHz
Frame rate : 2 400.000 FPS (40 SPF)
Compression mode : Lossless
Stream size : 1.53 GiB (17%)
Language : Chinese
Default : No
Forced : No

Text #1
ID : 4
Format : PGS
Muxing mode : zlib
Codec ID : S_HDMV/PGS
Codec ID/Info : Picture based subtitle format used on BDs/HD-DVDs
Duration : 1 h 36 min
Bit rate : 28.7 kb/s
Count of elements : 2402
Stream size : 19.8 MiB (0%)
Language : Chinese
Default : Yes
Forced : No

Text #2
ID : 5
Format : PGS
Muxing mode : zlib
Codec ID : S_HDMV/PGS
Codec ID/Info : Picture based subtitle format used on BDs/HD-DVDs
Duration : 1 h 36 min
Bit rate : 29.3 kb/s
Count of elements : 2402
Stream size : 20.2 MiB (0%)
Language : Chinese
Default : No
Forced : No

Menu
00:00:00.000 : en:00:00:00.000
00:09:21.000 : en:00:09:21.000
00:17:48.960 : en:00:17:48.960
00:26:09.360 : en:00:26:09.360
00:32:44.560 : en:00:32:44.560
00:42:45.840 : en:00:42:45.840
00:50:42.320 : en:00:50:42.320
00:59:15.040 : en:00:59:15.040
01:10:36.600 : en:01:10:36.600
01:17:17.640 : en:01:17:17.640
01:26:05.240 : en:01:26:05.240
01:36:09.960 : en:01:36:09.960





分享到: 新浪微博新浪微博 QQ空间QQ空间 腾讯微博腾讯微博 腾讯朋友腾讯朋友

多谢我们的超版分享

TOP

多谢超版分享

TOP

感谢版主分享
花落滿懷  暗香盈袖  淡淡歡喜淡淡愁

TOP

3Q...
                                                     ^^$

TOP

感谢牡丹分享

TOP

返回列表