返回列表 发帖

[1080P] 黄鸟 The.Yellow.Birds.2017.1080p.BluRay.x264.DTS-CHD




◎译  名 黄鸟
◎片  名 The Yellow Birds
◎年  代 2017
◎国  家 美国
◎类  别 剧情/战争
◎语  言 英语
◎IMDb评分 6.3/10 from 266 users
◎IMDB链接 http://imdb.com/title/tt3739110/
◎片  长 1 h 35 min
◎导  演 亚历山大·摩尔 Alexandre Moors
◎主  演 詹妮弗·安妮斯顿 Jennifer Aniston
       阿尔登·埃伦瑞奇 Alden Ehrenreich
       托妮·科莱特 Toni Collette
       杰克·休斯顿 Jack Huston
       泰伊·谢里丹 Tye Sheridan





◎简  介

  影片改编自口碑极佳的同名小说,讲述一位年纪稍长(康伯巴奇饰,书中该角色21岁)的军人,为了守住承诺,在伊拉克战争期间保护、照看一位小兵(谢里丹饰)的故事。
Video
ID : 1
Format : AVC
Format/Info : Advanced Video Codec
Format profile : High@L4.1
Format settings : CABAC / 4 Ref Frames
Format settings, CABAC : Yes
Format settings, ReFrames : 4 frames
Codec ID : V_MPEG4/ISO/AVC
Duration : 1 h 35 min
Bit rate : 12.9 Mb/s
Width : 1 920 pixels
Height : 802 pixels
Display aspect ratio : 2.40:1
Frame rate mode : Constant
Frame rate : 23.976 (24000/1001) FPS
Color space : YUV
Chroma subsampling : 4:2:0
Bit depth : 8 bits
Scan type : Progressive
Bits/(Pixel*Frame) : 0.349
Stream size : 8.55 GiB (89%)
Writing library : x264 core 155 r2867+74 66b5600 t_mod_Custom_2 [8-bit@all X86_64]
Encoding settings : cabac=1 / ref=4 / deblock=1:-3:-3 / analyse=0x3:0x113 / me=umh / subme=10 / psy=1 / fade_compensate=0.00 / psy_rd=0.90:0.10 / mixed_ref=1 / me_range=48 / chroma_me=1 / trellis=2 / 8x8dct=1 / cqm=0 / deadzone=21,11 / fast_pskip=0 / chroma_qp_offset=-2 / threads=18 / lookahead_threads=3 / sliced_threads=0 / nr=0 / decimate=1 / interlaced=0 / bluray_compat=0 / constrained_intra=0 / fgo=0 / bframes=8 / b_pyramid=2 / b_adapt=2 / b_bias=0 / direct=3 / weightb=1 / open_gop=0 / weightp=2 / keyint=250 / keyint_min=23 / scenecut=40 / intra_refresh=0 / rc_lookahead=40 / rc=crf / mbtree=0 / crf=21.0000 / qcomp=0.70 / qpmin=0:0:0 / qpmax=69:69:69 / qpstep=4 / vbv_maxrate=35000 / vbv_bufsize=35000 / crf_max=0.0 / nal_hrd=none / filler=0 / ip_ratio=1.40 / pb_ratio=1.30 / aq=3:0.90 / aq-sensitivity=10.00 / aq-factor=1.00:1.00:1.00 / aq2=0 / aq3=2:[0.50:0.50]:[0.50:0.50]:[0.50:0.50]:[0.50:0.50] / aq3-sensitivity=10.00 / aq3-factor=[1.00:1.00]:[1.00:1.00]:[1.00:1.00] / aq3-boundary=192:64:24
Language : English
Default : Yes
Forced : No
Color range : Limited
Matrix coefficients : BT.709

Audio
ID : 2
Format : DTS
Format/Info : Digital Theater Systems
Codec ID : A_DTS
Duration : 1 h 35 min
Bit rate mode : Constant
Bit rate : 1 509 kb/s
Channel(s) : 6 channels
Channel positions : Front: L C R, Side: L R, LFE
Sampling rate : 48.0 kHz
Frame rate : 93.750 FPS (512 SPF)
Bit depth : 24 bits
Compression mode : Lossy
Stream size : 1.00 GiB (10%)
Language : English
Default : Yes
Forced : No

Menu
00:00:00.000 : en:00:00:00.000
00:06:17.502 : en:00:06:17.502
00:10:53.403 : en:00:10:53.403
00:17:08.778 : en:00:17:08.778
00:22:20.089 : en:00:22:20.089
00:28:05.517 : en:00:28:05.517
00:35:27.125 : en:00:35:27.125
00:42:37.680 : en:00:42:37.680
00:49:33.262 : en:00:49:33.262
00:55:13.101 : en:00:55:13.101
01:01:01.867 : en:01:01:01.867
01:06:34.616 : en:01:06:34.616
01:11:33.164 : en:01:11:33.164
01:17:53.085 : en:01:17:53.085
01:23:58.533 : en:01:23:58.533
01:29:42.127 : en:01:29:42.127





The.Yellow.Birds.2017.1080p.BluRay.x264.DTS-CHD.torrent (96.02 KB)

分享到: 新浪微博新浪微博 QQ空间QQ空间 腾讯微博腾讯微博 腾讯朋友腾讯朋友

多谢超版分享

TOP

感谢版主分享
花落滿懷  暗香盈袖  淡淡歡喜淡淡愁

TOP

返回列表