返回列表 发帖

[720P] 死侍2(未分级) Deadpool.2.2018.Super.Duper.Cut.UNRATED.720p.AMZN.WEBRip.DDP5.1.x264-NTG



◎译  名 死侍2
◎片  名 Deadpool 2
◎年  代 2018
◎国  家 美国
◎类  别 动作/冒险/喜剧
◎语  言 英语
◎IMDb评分 8.1/10 from 182,859 users
◎IMDB链接 http://www.imdb.com/title/tt5463162
◎文件大小 5.79 GiB
◎片  长 2 h 14 min
◎导  演 大卫·里奇 David Leitch
◎主  演 瑞安·雷诺兹 Ryan Reynolds
      乔什·布洛林 Josh Brolin
      莫蕾娜·巴卡林 Morena Baccarin
      布里安娜·希德布兰德 Brianna Hildebrand
      T·J·米勒 T.J. Miller
      比尔·斯卡斯加德 Bill Skarsgård
      莎姬·贝兹 Zazie Beetz
      泰瑞·克鲁斯 Terry Crews
      埃迪·马森 Eddie Marsan
      杰克·凯西 Jack Kesy
      莱斯利·格塞斯 Leslie Uggams
      忽那汐里 Kutsuna Shiori
      朱利安·迪尼森 Julian Dennison
      刘易斯·谭 Lewis Tan
      卡兰·索尼 Karan Soni
      布拉德·皮特 Brad Pitt
      马特·达蒙 Matt Damon
      休·杰克曼 Hugh Jackman
      詹姆斯·麦卡沃伊 James McAvoy
      尼古拉斯·霍尔特 Nicholas Hoult
      埃文·彼得斯 Evan Peters
      泰伊·谢里丹 Tye Sheridan
      亚历山德拉·希普 Alexandra Shipp
      柯蒂·斯密特-麦菲 Kodi Smit-McPhee
      艾伦·图代克 Alan Tudyk

◎简  介

  拥有不死之身的死侍韦德·威尔森(瑞恩·雷诺兹 Ryan Reynolds 饰)继续在惩恶扬善、毒舌嘴贱的路上绝命狂奔,与此同时他和女友瓦内莎(莫蕾娜·巴卡林 Morena Baccarin 饰)的爱情逐渐升华,两人全新期待新生命的到来。谁知命运难测,因瓦内莎意外身亡,韦德万念俱灰,绝望地渴求生命的终结。在他最失落的时候,钢力士和少年弹头等将他领走,成为X战警中的一员。在某次行动中,死侍因袒护暴走的14岁变种人拉塞尔(朱利安·迪尼森 Julian Dennison 饰)而随同对方被关入冰盒监狱。没过多久,来自未来的电索(乔什·布洛林 Josh Brolin 饰)闯入监狱,意图杀死在未来引起无数灾难的拉塞尔。

  为了阻止电索,逃离监狱的死侍找到一群战友与之对抗,而拉塞尔则朝着黑暗渐渐远去……

Video
ID : 1
Format : AVC
Format/Info : Advanced Video Codec
Format profile : High@L3.1
Format settings : CABAC / 4 Ref Frames
Format settings, CABAC : Yes
Format settings, ReFrames : 4 frames
Codec ID : V_MPEG4/ISO/AVC
Duration : 2 h 14 min
Bit rate mode : Constant
Bit rate : 6 000 kb/s
Width : 1 280 pixels
Height : 720 pixels
Display aspect ratio : 16:9
Frame rate mode : Constant
Frame rate : 23.976 (24000/1001) FPS
Color space : YUV
Chroma subsampling : 4:2:0
Bit depth : 8 bits
Scan type : Progressive
Bits/(Pixel*Frame) : 0.272
Stream size : 5.55 GiB (96%)
Language : English
Default : Yes
Forced : No
Color range : Limited
Color primaries : BT.709
Transfer characteristics : BT.709
Matrix coefficients : BT.709

Audio
ID : 2
Format : E-AC-3
Format/Info : Enhanced Audio Coding 3
Codec ID : A_EAC3
Duration : 2 h 14 min
Bit rate mode : Constant
Bit rate : 256 kb/s
Channel(s) : 6 channels
Channel positions : Front: L C R, Side: L R, LFE
Sampling rate : 48.0 kHz
Frame rate : 187.500 FPS (256 SPF)
Compression mode : Lossy
Stream size : 245 MiB (4%)
Language : English
Service kind : Complete Main
Default : Yes
Forced : No

Text
ID : 3
Format : UTF-8
Codec ID : S_TEXT/UTF8
Codec ID/Info : UTF-8 Plain Text
Duration : 2 h 13 min
Bit rate : 69 b/s
Count of elements : 2427
Stream size : 67.5 KiB (0%)
Title : SDH
Language : English
Default : No
Forced : No

Menu
00:00:00.000 : en:Scene 36
00:00:03.846 : en:Super Duper Cut: Scene 1
00:02:33.846 : en:Super Duper Cut: Scene 2 - Includes New Stuff
00:07:57.846 : en:Super Duper Cut: Scene 3 - Includes New Stuff
00:10:47.846 : en:Super Duper Cut: Scene 4 - Includes New Stuff
00:14:22.846 : en:Super Duper Cut: Scene 5 - Includes New Stuff
00:17:45.846 : en:Super Duper Cut: Scene 6 - Includes New Stuff
00:19:12.846 : en:Super Duper Cut: Scene 7 - Includes New Stuff
00:24:28.846 : en:Super Duper Cut: Scene 8 - Includes New Stuff
00:27:13.846 : en:Super Duper Cut: Scene 9 - Includes New Stuff
00:37:16.846 : en:Super Duper Cut: Scene 10 - Includes New Stuff
00:42:13.846 : en:Super Duper Cut: Scene 11 - Includes New Stuff
00:44:42.846 : en:Super Duper Cut: Scene 12 - Includes New Stuff
00:49:32.846 : en:Super Duper Cut: Scene 13
00:52:22.846 : en:Super Duper Cut: Scene 14 - Includes New Stuff
00:56:46.846 : en:Super Duper Cut: Scene 15 - Includes New Stuff
01:01:01.846 : en:Super Duper Cut: Scene 16 - Includes New Stuff
01:04:50.846 : en:Super Duper Cut: Scene 17 - Includes New Stuff
01:07:24.846 : en:Super Duper Cut: Scene 18 - Includes New Stuff
01:09:46.846 : en:Super Duper Cut: Scene 19
01:11:47.846 : en:Super Duper Cut: Scene 20 - Includes New Stuff
01:15:18.846 : en:Super Duper Cut: Scene 21 - Includes New Stuff
01:19:16.846 : en:Super Duper Cut: Scene 22 - Includes New Stuff
01:21:01.846 : en:Super Duper Cut: Scene 23 - Includes New Stuff
01:24:51.846 : en:Super Duper Cut: Scene 24
01:29:07.846 : en:Super Duper Cut: Scene 25 - Includes New Stuff
01:32:32.846 : en:Super Duper Cut: Scene 26 - Includes New Stuff
01:36:13.846 : en:Super Duper Cut: Scene 27 - Includes New Stuff
01:38:20.846 : en:Super Duper Cut: Scene 28 - Includes New Stuff
01:42:08.846 : en:Super Duper Cut: Scene 29 - Includes New Stuff
01:44:20.846 : en:Super Duper Cut: Scene 30
01:46:05.846 : en:Super Duper Cut: Scene 31
01:48:10.846 : en:Super Duper Cut: Scene 32
01:51:33.846 : en:Super Duper Cut: Scene 33 - Includes New Stuff
01:55:06.846 : en:Super Duper Cut: Scene 34 - Includes New Stuff
01:58:16.846 : en:Super Duper Cut: Scene 35 - Includes New Stuff
02:02:35.846 : en:Super Duper Cut: Scene 36 - Includes New Stuff






分享到: 新浪微博新浪微博 QQ空间QQ空间 腾讯微博腾讯微博 腾讯朋友腾讯朋友

多谢我们的超版分享

TOP

感谢分享

TOP

多谢超版分享

TOP

支持楼主,感谢!

TOP

返回列表